<?xml version="1.0" standalone="no"?>
<!DOCTYPE svg PUBLIC "-//W3C//DTD SVG 1.1//EN" "http://www.w3.org/Graphics/SVG/1.1/DTD/svg11.dtd" >
<svg xmlns="http://www.w3.org/2000/svg">
<metadata>Generated by IcoMoon</metadata>
<defs>
<font id="icomoon" horiz-adv-x="1024">
<font-face units-per-em="1024" ascent="960" descent="-64" />
<missing-glyph horiz-adv-x="1024" />
<glyph unicode="&#x20;" horiz-adv-x="512" d="" />
<glyph unicode="&#xe031;" glyph-name="new_releases" d="M554 384.667v256h-84v-256h84zM554 212.667v86h-84v-86h84zM982 426.667l-104-118 14-158-154-34-80-136-146 62-146-62-80 134-154 36 14 158-104 118 104 120-14 156 154 34 80 136 146-62 146 62 80-136 154-34-14-158z" />
<glyph unicode="&#xe0e1;" glyph-name="mail_outline" d="M512 468.667l342 214h-684zM854 170.667v426l-342-212-342 212v-426h684zM854 768.667c46 0 84-40 84-86v-512c0-46-38-86-84-86h-684c-46 0-84 40-84 86v512c0 46 38 86 84 86h684z" />
<glyph unicode="&#xe14b;" glyph-name="block" d="M512 84.667c188 0 342 154 342 342 0 78-26 152-72 210l-480-480c58-46 132-72 210-72zM170 426.667c0-78 26-152 72-210l480 480c-58 46-132 72-210 72-188 0-342-154-342-342zM512 852.667c236 0 426-190 426-426s-190-426-426-426-426 190-426 426 190 426 426 426z" />
<glyph unicode="&#xe263;" glyph-name="monetization_on" d="M572 166.667c74 14 134 56 134 134 0 108-94 146-180 168s-112 46-112 82c0 40 38 70 102 70 68 0 92-32 94-80h84c-2 66-42 124-122 144v84h-114v-84c-74-16-132-62-132-136 0-88 72-130 178-156 96-22 114-56 114-92 0-26-18-68-102-68-78 0-110 36-114 80h-84c4-82 68-128 140-144v-84h114v82zM512 852.667c236 0 426-190 426-426s-190-426-426-426-426 190-426 426 190 426 426 426z" />
<glyph unicode="&#xe321;" glyph-name="laptop_windows" d="M170 724.667v-426h684v426h-684zM854 170.667h170v-86h-1024v86h170v42c-46 0-84 40-84 86v426c0 46 38 86 84 86h684c46 0 84-40 84-86v-426c0-46-38-86-84-86v-42z" />
<glyph unicode="&#xe3a6;" glyph-name="brightness_1" d="M86 426.667c0 236 190 426 426 426s426-190 426-426-190-426-426-426-426 190-426 426z" />
<glyph unicode="&#xe3e2;" glyph-name="ruler-size-chart-noun" d="M121.998 14.506h780.001c0.823 0.045 1.657 0.045 2.483 0.143 1.65 0.185 3.272 0.551 4.84 1.099 6.31 2.215 11.381 7.286 13.596 13.596 0.551 1.569 0.914 3.191 1.099 4.84 0.098 0.823 0.098 1.657 0.143 2.483v780.001c-0.045 0.823-0.045 1.657-0.143 2.483-0.185 1.65-0.551 3.272-1.099 4.84-2.215 6.31-7.286 11.381-13.596 13.596-1.569 0.551-3.191 0.914-4.84 1.099-0.823 0.098-1.657 0.098-2.483 0.143h-195.001c-0.823-0.045-1.657-0.087-2.483-0.143-0.816-0.133-1.639-0.23-2.445-0.415-1.622-0.363-3.191-0.914-4.688-1.639-5.256-2.525-9.369-7.136-11.301-12.64-0.551-1.569-0.914-3.191-1.099-4.84-0.098-0.823-0.098-1.657-0.143-2.483v-562.841l-565.324-0.143c-0.816-0.133-1.639-0.23-2.445-0.415-1.622-0.363-3.191-0.914-4.688-1.639-5.256-2.525-9.369-7.136-11.301-12.64-0.551-1.569-0.914-3.191-1.099-4.84-0.098-0.823-0.098-1.657-0.143-2.483v-195.001c0.045-0.823 0.045-1.657 0.143-2.483 0.185-1.65 0.551-3.272 1.099-4.84 2.215-6.31 7.286-11.381 13.596-13.596 1.569-0.551 3.191-0.914 4.84-1.099 0.823-0.098 1.657-0.098 2.483-0.143zM729.16 741.682v52.828h150.683c0-245.231 0-490.452 0-735.683h-735.683v150.683h52.916c-0.125-25.11 0.265-50.23 0.265-75.34 0.017-0.931 0.063-1.852 0.178-2.773 0.345-2.766 1.224-5.459 2.56-7.897 1.046-1.905 2.367-3.642 3.917-5.159 1.542-1.517 3.314-2.801 5.239-3.812 5.239-2.738 11.486-3.261 17.115-1.437 2.641 0.86 5.124 2.225 7.276 4.007 2.145 1.772 3.945 3.952 5.291 6.4 1.188 2.163 2.012 4.538 2.428 6.976 0.16 0.921 0.23 1.835 0.293 2.766 0.531 25.42 0.248 50.851 0.098 76.271h52.836c-0.125-25.11 0.265-50.23 0.265-75.34 0.017-0.931 0.063-1.852 0.178-2.773 0.31-2.455 1.036-4.859 2.135-7.081 1.231-2.49 2.951-4.751 5.016-6.613 2.075-1.862 4.493-3.333 7.108-4.299 2.030-0.753 4.165-1.214 6.327-1.346 5.902-0.373 11.824 1.692 16.219 5.647 1.604 1.454 3.004 3.139 4.123 4.991 1.444 2.386 2.438 5.033 2.898 7.782 0.16 0.921 0.23 1.835 0.293 2.766 0.531 25.42 0.248 50.851 0.098 76.271h52.836c-0.125-25.11 0.265-50.23 0.265-75.34 0.017-0.931 0.063-1.852 0.178-2.773 0.31-2.455 1.036-4.859 2.135-7.081 1.231-2.49 2.951-4.751 5.016-6.613 2.075-1.862 4.493-3.333 7.108-4.299 5.539-2.065 11.807-1.8 17.15 0.718 1.967 0.921 3.784 2.135 5.399 3.582 1.604 1.454 3.004 3.139 4.123 4.991 1.444 2.386 2.438 5.033 2.898 7.782 0.16 0.921 0.23 1.835 0.293 2.766 0.531 25.42 0.248 50.851 0.098 76.271h52.836c-0.125-25.11 0.265-50.23 0.265-75.34 0.017-0.931 0.063-1.852 0.178-2.773 0.31-2.455 1.036-4.859 2.135-7.081 1.231-2.49 2.951-4.751 5.016-6.613 2.075-1.862 4.493-3.333 7.108-4.299 2.030-0.753 4.165-1.214 6.327-1.346 5.902-0.373 11.824 1.692 16.219 5.647 1.604 1.454 3.004 3.139 4.123 4.991 1.444 2.386 2.438 5.033 2.898 7.782 0.16 0.921 0.23 1.835 0.293 2.766 0.531 25.42 0.248 50.851 0.098 76.271h52.836c-0.125-25.11 0.265-50.23 0.265-75.34 0.017-0.931 0.063-1.852 0.178-2.773 0.31-2.455 1.036-4.859 2.135-7.081 1.231-2.49 2.951-4.751 5.016-6.613 2.075-1.862 4.493-3.333 7.108-4.299 2.030-0.753 4.165-1.214 6.327-1.346 5.902-0.373 11.824 1.692 16.219 5.647 1.604 1.454 3.004 3.139 4.123 4.991 1.444 2.386 2.438 5.033 2.898 7.782 0.16 0.921 0.23 1.835 0.293 2.766 0.531 25.42 0.248 50.851 0.098 76.271h52.836c-0.125-25.11 0.265-50.23 0.265-75.34 0.017-0.931 0.063-1.852 0.178-2.773 0.31-2.455 1.036-4.859 2.135-7.081 1.231-2.49 2.951-4.751 5.016-6.613 2.075-1.862 4.493-3.333 7.108-4.299 2.030-0.753 4.165-1.214 6.327-1.346 5.902-0.373 11.824 1.692 16.219 5.647 1.604 1.454 3.004 3.139 4.123 4.991 1.444 2.386 2.438 5.033 2.898 7.782 0.16 0.921 0.23 1.835 0.293 2.766 0.531 25.333 0.248 50.666 0.098 76.006 25.085-0.125 50.178 0.265 75.261 0.265 0.931 0.017 1.852 0.063 2.773 0.178 2.766 0.345 5.459 1.224 7.897 2.56 5.186 2.853 9.076 7.764 10.673 13.464 0.586 2.082 0.86 4.255 0.806 6.418-0.045 2.173-0.408 4.325-1.072 6.39-0.86 2.641-2.225 5.124-4.007 7.276-1.772 2.145-3.952 3.945-6.4 5.291-2.163 1.188-4.538 2.012-6.976 2.428-0.921 0.16-1.835 0.23-2.766 0.293-25.42 0.531-50.851 0.656-76.271 0.373v52.56c25.11-0.125 50.23 0.265 75.34 0.265 0.931 0.017 1.852 0.063 2.773 0.178 2.455 0.31 4.859 1.036 7.081 2.135 2.49 1.231 4.751 2.951 6.613 5.016 1.862 2.075 3.333 4.493 4.299 7.108 2.065 5.539 1.8 11.807-0.718 17.15-0.921 1.967-2.135 3.784-3.582 5.399-1.454 1.604-3.139 3.004-4.991 4.123-2.386 1.444-5.033 2.438-7.782 2.898-0.921 0.16-1.835 0.23-2.766 0.293-25.42 0.531-50.851 0.656-76.271 0.373v52.56c25.11-0.125 50.23 0.265 75.34 0.265 0.931 0.017 1.852 0.063 2.773 0.178 2.455 0.31 4.859 1.036 7.081 2.135 2.49 1.231 4.751 2.951 6.613 5.016 1.862 2.075 3.333 4.493 4.299 7.108 0.753 2.030 1.214 4.165 1.346 6.327 0.373 5.902-1.692 11.824-5.647 16.219-1.454 1.604-3.139 3.004-4.991 4.123-2.386 1.444-5.033 2.438-7.782 2.898-0.921 0.16-1.835 0.23-2.766 0.293-25.42 0.531-50.851 0.656-76.271 0.373v52.56c25.11-0.125 50.23 0.265 75.34 0.265 0.931 0.017 1.852 0.063 2.773 0.178 2.455 0.31 4.859 1.036 7.081 2.135 2.49 1.231 4.751 2.951 6.613 5.016 1.862 2.075 3.333 4.493 4.299 7.108 0.753 2.030 1.214 4.165 1.346 6.327 0.373 5.902-1.692 11.824-5.647 16.219-1.454 1.604-3.139 3.004-4.991 4.123-2.386 1.444-5.033 2.438-7.782 2.898-0.921 0.16-1.835 0.23-2.766 0.293-25.42 0.531-50.851 0.656-76.271 0.373v52.56c25.11-0.125 50.23 0.265 75.34 0.265 0.931 0.017 1.852 0.063 2.773 0.178 2.766 0.345 5.459 1.224 7.897 2.56 5.186 2.853 9.076 7.764 10.673 13.464 0.586 2.082 0.86 4.255 0.806 6.418-0.045 2.173-0.408 4.325-1.072 6.39-0.86 2.641-2.225 5.124-4.007 7.276-1.772 2.145-3.952 3.945-6.4 5.291-2.163 1.188-4.538 2.012-6.976 2.428-0.921 0.16-1.835 0.23-2.766 0.293-25.42 0.531-50.851 0.656-76.271 0.373v52.56c25.11-0.125 50.23 0.265 75.34 0.265 0.931 0.017 1.852 0.063 2.773 0.178 2.766 0.345 5.459 1.224 7.897 2.56 5.186 2.853 9.076 7.764 10.673 13.464 0.586 2.082 0.86 4.255 0.806 6.418-0.045 2.173-0.408 4.325-1.072 6.39-0.86 2.641-2.225 5.124-4.007 7.276-1.772 2.145-3.952 3.945-6.4 5.291-2.163 1.188-4.538 2.012-6.976 2.428-0.921 0.16-1.835 0.23-2.766 0.293-25.42 0.531-50.851 0.656-76.271 0.373z" />
<glyph unicode="&#xe408;" glyph-name="navigate_before" d="M735.834 704.338l-277.671-277.671 277.671-277.671-84.998-84.998-362.669 362.669 362.669 362.669z" />
<glyph unicode="&#xe409;" glyph-name="navigate_next" d="M373.164 789.336l362.669-362.669-362.669-362.669-84.998 84.998 277.671 277.671-277.671 277.671z" />
<glyph unicode="&#xe40a;" glyph-name="navigate_up" d="M149.331 287.831l362.669 362.669 362.669-362.669-84.998-84.998-277.671 277.671-277.671-277.671z" />
<glyph unicode="&#xe40b;" glyph-name="navigate_down" d="M874.669 565.503l-362.669-362.669-362.669 362.669 84.998 84.998 277.671-277.671 277.671 277.671z" />
<glyph unicode="&#xe5c4;" glyph-name="arrow_back" d="M896.002 473.824v-94.314h-583.859l267.228-269.472-67.367-67.367-384.002 384.002 384.002 384.002 67.367-67.367-267.228-269.472h583.859z" />
<glyph unicode="&#xe5c8;" glyph-name="arrow_forward" d="M512 810.669l384.002-384.002-384.002-384.002-67.367 67.367 267.228 269.472h-583.859v94.314h583.859l-267.228 269.472z" />
<glyph unicode="&#xe5c9;" glyph-name="cancel" d="M726 272.667l-154 154 154 154-60 60-154-154-154 154-60-60 154-154-154-154 60-60 154 154 154-154zM512 852.667c236 0 426-190 426-426s-190-426-426-426-426 190-426 426 190 426 426 426z" />
<glyph unicode="&#xe5cd;" glyph-name="close2" d="M810 664.667l-238-238 238-238-60-60-238 238-238-238-60 60 238 238-238 238 60 60 238-238 238 238z" />
<glyph unicode="&#xe5d2;" glyph-name="menu" d="M128 682.667h768v-86h-768v86zM128 384.667v84h768v-84h-768zM128 170.667v86h768v-86h-768z" />
<glyph unicode="&#xe5d8;" glyph-name="arrow_upward" d="M106.665 426.667l405.335 405.335 405.335-405.335-73.482-71.11-282.074 282.074v-616.294h-99.554v616.294l-284.443-282.074z" />
<glyph unicode="&#xe5db;" glyph-name="arrow_downward" d="M896.002 426.667l-384.002-384.002-384.002 384.002 69.615 67.367 267.228-267.228v583.857h94.314v-583.857l269.472 267.228z" />
<glyph unicode="&#xe7fd;" glyph-name="person" d="M512 340.667c114 0 342-56 342-170v-86h-684v86c0 114 228 170 342 170zM512 426.667c-94 0-170 76-170 170s76 172 170 172 170-78 170-172-76-170-170-170z" />
<glyph unicode="&#xe88a;" glyph-name="home2" d="M426 84.667h-212v342h-128l426 384 426-384h-128v-342h-212v256h-172v-256z" />
<glyph unicode="&#xe8b3;" glyph-name="restore" d="M512 596.667h64v-180l150-90-32-52-182 110v212zM554 810.667c212 0 384-172 384-384s-172-384-384-384c-106 0-200 42-270 112l60 62c54-54 128-88 210-88 166 0 300 132 300 298s-134 298-300 298-298-132-298-298h128l-172-172-4 6-166 166h128c0 212 172 384 384 384z" />
<glyph unicode="&#xe8d2;" glyph-name="subject" d="M0 872.796h1024v-125.755h-1024v125.755zM0 235.040v128.748h1024v-128.748h-1024zM1024 618.294v-128.748h-1024v128.748h1024zM640.748 106.294v-125.755h-640.748v125.755h640.748z" />
<glyph unicode="&#xe8eb;" glyph-name="view_carousel-grid-list" d="M819.681 734.348h204.319v-564.883h-204.319v564.883zM0 169.465v564.883h204.319v-564.883h-204.319zM254.798 68.507v769.202h514.404v-769.202h-514.404z" />
<glyph unicode="&#xe900;" glyph-name="star-line" d="M512 180.907l-300.928-168.448 67.2 338.261-253.227 234.155 342.485 40.619 144.469 313.173 144.469-313.173 342.485-40.619-253.227-234.155 67.2-338.261-300.928 168.448zM512 278.699l181.205-101.419-40.491 203.648 152.448 141.013-206.208 24.448-86.955 188.544-86.955-188.587-206.208-24.405 152.448-141.013-40.491-203.648 181.205 101.419z" />
<glyph unicode="&#xe901;" glyph-name="ampersand-1" d="M800.731 899.218c51.493 0 94.208-14.921 128.11-44.763s50.907-70.107 50.907-120.759c0-39.241-10.642-73.399-31.89-102.4s-49.445-52.114-84.59-69.303c-31.049-14.702-91.538-35.95-181.467-63.744 45.787-19.639 79.506-47.616 101.157-84.005s32.475-77.861 32.475-124.453c0-50.688-15.104-98.523-45.349-143.47s-73.582-81.115-129.975-108.507-122.624-41.070-198.619-41.070c-71.095 0-137.106 12.471-198.034 37.376s-109.312 60.489-145.262 106.679c-35.95 46.19-53.943 99.95-53.943 161.243 0 53.943 13.275 99.511 39.863 136.704s57.015 65.39 91.355 84.59c34.341 19.2 66.194 32.512 95.634 39.863-40.046 17.189-70.693 40.046-91.941 68.681s-31.89 58.441-31.89 89.49c0 26.99 7.973 52.114 23.918 75.41s39.643 42.094 71.095 56.43c31.488 14.299 68.901 21.431 112.201 21.431 54.784 0 97.28-12.251 127.525-36.791 14.738-12.251 25.966-25.929 33.719-41.070s11.63-29.623 11.63-43.52c0-19.639-6.949-35.365-20.809-47.214s-29.842-17.774-47.799-17.774c-17.189 0-32.073 5.522-44.763 16.53s-19.017 25.929-19.017 44.763c0 17.993 6.144 33.317 18.395 45.97s27.794 19.822 46.592 21.467c-4.096 10.606-14.519 19.822-31.269 27.575s-37.413 11.666-61.915 11.666c-42.496 0-76.837-12.873-103.022-38.619s-39.241-61.513-39.241-107.301c0-54.784 20.846-101.339 62.537-139.776 28.599 4.901 53.943 7.351 75.995 7.351 14.738 0 26.587-2.45 35.547-7.351s13.495-11.886 13.495-20.846c0-7.351-3.072-13.056-9.216-17.152s-14.482-6.144-25.125-6.144c-13.093 0-26.587 2.45-40.448 7.351s-30.245 11.447-49.042 19.602c-106.277-31.89-159.415-98.889-159.415-201.106 0-54.784 14.299-102.181 42.898-142.226s67.84-70.51 117.723-91.355c49.847-20.846 105.838-31.269 167.973-31.269 58.039 0 111.762 9.179 161.243 27.575s88.686 44.544 117.723 78.482c29.001 33.938 43.52 73.399 43.52 118.309 0 32.695-8.594 65.792-25.746 99.328s-49.847 59.685-98.085 78.482c-63.781-19.639-110.775-35.145-141.019-46.592-34.341-13.093-60.891-28.014-79.689-44.763s-28.197-37.376-28.197-61.915c0-29.44 12.032-53.138 36.133-71.131s49.664-26.99 76.617-26.99c13.897 0 29.038 2.45 45.349 7.387s25.746 11.447 28.197 19.602c-15.543 3.255-29.038 9.801-40.448 19.639s-17.152 24.101-17.152 42.898c0 19.602 6.327 35.145 18.981 46.592s28.818 17.152 48.421 17.152c19.639 0 35.365-6.144 47.214-18.395s17.81-28.197 17.81-47.799c0-32.731-15.104-58.478-45.349-77.239s-63.744-28.197-100.571-28.197c-40.046 0-75.374 12.069-106.057 36.169s-45.97 59.867-45.97 107.301c0 41.691 14.117 77.019 42.313 106.057s70.51 53.321 126.903 72.96l87.040 25.746c49.042 13.897 89.929 26.149 122.624 36.754s62.537 22.089 89.49 34.341c39.241 17.993 66.633 36.389 82.139 55.186s23.296 39.643 23.296 62.501c0 34.341-14.117 63.561-42.313 87.662s-61.513 36.169-99.95 36.169c-20.443 0-32.695-3.694-36.791-11.008 10.642-4.901 19.017-12.873 25.161-23.918s9.179-21.833 9.179-32.475c0-17.189-6.729-31.488-20.224-42.898s-29.659-17.189-48.457-17.189c-17.152 0-32.256 5.303-45.349 15.909s-19.602 25.783-19.602 45.385c0 29.44 13.678 50.871 41.070 64.366s58.661 20.261 93.806 20.261z" />
<glyph unicode="&#xe902;" glyph-name="star-fill" d="M512 180.907l-300.928-168.448 67.2 338.261-253.227 234.155 342.485 40.619 144.469 313.173 144.469-313.173 342.485-40.619-253.227-234.155 67.2-338.261z" />
<glyph unicode="&#xe903;" glyph-name="noun_grid-view_312060_000000" d="M958.359 119.795h-157.538c-36.759 0-65.641 28.882-65.641 65.641v157.538c0 36.759 28.882 65.641 65.641 65.641h157.538c36.759 0 65.641-28.882 65.641-65.641v-157.538c0-36.759-28.882-65.641-65.641-65.641zM958.359 487.385h-525.128c-36.759 0-65.641 28.882-65.641 65.641v157.538c0 36.759 28.882 65.641 65.641 65.641h525.128c36.759 0 65.641-28.882 65.641-65.641v-157.538c0-36.759-28.882-65.641-65.641-65.641zM223.179 119.795h-157.538c-36.759 0-65.641 28.882-65.641 65.641v525.128c0 36.759 28.882 65.641 65.641 65.641h157.538c36.759 0 65.641-28.882 65.641-65.641v-525.128c0-36.759-28.882-65.641-65.641-65.641zM433.231 408.615h157.538c36.759 0 65.641-28.882 65.641-65.641v-157.538c0-36.759-28.882-65.641-65.641-65.641h-157.538c-36.759 0-65.641 28.882-65.641 65.641v157.538c0 36.759 28.882 65.641 65.641 65.641z" />
<glyph unicode="&#xe904;" glyph-name="iconmonstr-gear-2" d="M1024 354.688v186.624c-91.648 32.683-116.309 34.219-129.152 65.237-12.928 31.104 3.541 49.877 45.184 137.515l-131.968 131.968c-86.443-41.088-106.155-58.197-137.557-45.184-31.019 12.885-32.768 37.931-65.152 129.152h-186.667c-32.597-91.477-34.133-116.267-65.237-129.152-32.085-13.355-51.328 4.267-137.515 45.184l-131.968-131.968c41.685-87.68 58.112-106.368 45.184-137.557-12.885-31.019-37.589-32.597-129.152-65.195v-186.667c91.264-32.427 116.267-34.133 129.152-65.195 12.971-31.317-3.456-49.792-45.184-137.515l131.968-131.968c85.291 40.533 105.387 58.581 137.515 45.184 31.061-12.885 32.597-37.547 65.237-129.152h186.624c32.341 90.923 34.091 116.181 65.579 129.323 31.787 13.141 50.603-4.224 137.173-45.312l131.968 131.968c-41.6 87.467-58.112 106.325-45.184 137.515 12.8 30.976 37.547 32.555 129.152 65.195zM816 322.091c-24.619-59.477-2.901-104.875 20.821-152.661l-46.251-46.251c-46.635 23.168-92.203 45.909-152.448 20.907-59.563-24.789-76.373-72.235-93.355-122.752h-65.451c-16.981 50.56-33.749 98.005-93.141 122.667-60.544 25.088-106.965 1.92-152.704-20.821l-46.208 46.251c23.765 47.701 45.483 93.013 20.779 152.747-24.704 59.349-72.149 76.117-122.709 93.099v65.408c50.56 16.981 98.005 33.749 122.667 93.184 24.661 59.477 2.901 104.917-20.821 152.704l46.251 46.251c46.165-22.955 92.245-45.952 152.747-20.821 59.392 24.619 76.16 72.107 93.141 122.667h65.451c16.981-50.56 33.792-98.005 93.184-122.667 60.544-25.088 106.923-1.92 152.704 20.821l46.251-46.251c-23.723-47.829-45.44-93.312-20.821-152.747 24.619-59.349 72.064-76.117 122.667-93.141v-65.451c-50.688-16.981-98.219-33.749-122.752-93.141zM512 576c70.571 0 128-57.429 128-128s-57.429-128-128-128-128 57.429-128 128 57.429 128 128 128zM512 661.333c-117.845 0-213.333-95.488-213.333-213.333s95.488-213.333 213.333-213.333 213.333 95.488 213.333 213.333-95.488 213.333-213.333 213.333z" />
<glyph unicode="&#xe905;" glyph-name="np_sync_237753_000000" d="M815.041 466.385h-69.645c-26.875 0-37.901-19.571-24.44-42.77l37.901-65.969c13.461-23.199 35.419-61.1 48.88-84.3l37.901-65.969c13.461-23.199 35.419-23.199 48.88 0l37.901 65.969c13.461 23.199 35.419 61.1 48.88 84.3l36.66 65.969c13.461 23.199 3.676 42.77-22.006 42.77h-58.666c-9.833 227.318-198.003 409.373-427.752 409.373-112.415 0-215.098-44.011-292.036-114.85l86.782-86.782c53.749 48.88 125.83 79.431 205.261 79.431 162.539 0 295.714-127.065 305.502-287.172zM806.499 92.427l-86.782 86.782c-53.749-48.88-125.879-79.431-205.31-79.431-158.861 0-288.418 120.96-304.256 274.952h68.452c26.875 0 37.901 19.571 24.44 42.77l-37.901 65.969c-13.461 23.199-35.419 61.1-48.88 84.3l-36.66 65.969c-13.461 23.199-35.419 23.199-48.88 0l-37.901-65.969c-13.461-23.199-35.419-61.1-48.88-84.3l-37.901-65.969c-13.461-23.199-3.676-42.77 22.006-42.77h59.859c15.896-222.394 200.386-397.153 426.457-397.153 112.511 0 215.135 44.011 292.133 114.85z" />
<glyph unicode="&#xe906;" glyph-name="np_sync_3895649_000000" d="M1023.763 426.65c-0.048 26.963-14.873 51.718-38.621 64.432-23.796 12.762-52.63 11.37-75.035-3.598l-146.227-97.2c-21.685-14.489-34.015-39.389-32.384-65.392 1.583-26.051 16.936-49.224 40.252-60.882l52.87-26.723c-45.434-75.035-116.296-131.22-199.729-158.376-83.431-27.107-173.813-23.316-254.702 10.699-80.84 34.015-146.757 95.953-185.764 174.539-17.943 36.174-61.792 50.951-97.968 33.008-36.174-17.943-50.903-61.841-32.96-97.968 68.846-138.982 197.039-239.214 348.5-272.548 151.461-33.344 309.836 3.79 430.678 100.99 120.901 97.2 191.131 243.907 191.094 399.015zM260.122 463.299c21.685 14.441 34.015 39.341 32.432 65.344-1.631 26.051-16.936 49.224-40.252 60.882l-52.918 26.482c45.434 74.987 116.342 131.171 199.729 158.277 83.431 27.107 173.813 23.268 254.653-10.747 80.84-33.967 146.757-95.953 185.764-174.49 17.991-36.222 61.889-50.951 98.063-32.96s50.903 61.889 32.912 98.063c-68.846 138.982-197.039 239.214-348.5 272.548s-309.873-3.79-430.727-100.99c-120.852-97.2-191.094-243.956-191.045-399.064 0.048-26.963 14.873-51.718 38.621-64.432 23.796-12.762 52.63-11.37 75.035 3.598z" />
<glyph unicode="&#xe907;" glyph-name="np_heart_1888022_000000" d="M294.709 869.982c-70.091 0-140.414-27.505-192.761-82.747-104.646-110.483-104.53-286.547 0-397.092l366.574-388.305c11.152-11.788 26.696-18.491 42.989-18.491 16.238 0 31.781 6.701 42.989 18.491 122.386 129.146 245.113 258.692 367.507 387.847 104.646 110.483 104.646 286.606 0 397.092s-280.425 110.483-385.065 0l-24.963-26.348-24.963 26.812c-52.352 55.241-122.212 82.747-192.303 82.747zM294.709 753.951c38.021 0 75.812-16.295 106.322-48.536l68.416-71.653c11.152-11.614 26.58-18.259 42.759-18.259 16.121 0 31.55 6.645 42.759 18.259l67.491 71.653c61.020 64.429 152.541 64.429 213.575 0s61.020-169.937 0-234.375c-108.055-114.065-216.001-228.472-324.045-342.537l-324.045 342.537v0.463c-61.020 64.544-61.020 169.479 0 233.9 30.51 32.243 68.762 48.536 106.785 48.536z" />
<glyph unicode="&#xe908;" glyph-name="np_heart_3318893_000000" d="M725.451 746.838c40.563 0 78.959-16.009 106.723-44.815 58.698-58.698 58.698-154.749 0-214.535l-320.17-320.17-320.17 320.17c-58.698 58.698-58.698 154.749 0 214.535 28.807 28.807 66.16 44.815 106.723 44.815s78.959-16.009 106.723-44.815l106.723-106.723 106.723 106.723c27.765 28.807 66.16 44.815 106.723 44.815zM725.451 894.127c-76.832 0-152.625-28.807-211.323-87.505l-2.126-2.168-2.126 2.126c-57.656 58.74-134.492 87.546-211.323 87.546s-152.625-28.807-211.323-87.505c-116.308-116.349-116.308-306.328 0-422.645l424.769-424.769 424.769 424.769c116.308 116.308 116.308 306.286 0 422.645-58.698 58.698-134.492 87.505-211.323 87.505z" />
<glyph unicode="&#xe909;" glyph-name="noun_bag_1896247" horiz-adv-x="899" d="M879.505 403.494c0 21.617-17.59 39.207-39.207 39.207h-507.361c-21.617 0-39.207-17.59-39.207-39.207l-19.497-382.746c0-21.617 17.59-39.207 39.207-39.207h546.356c21.617 0 39.207 17.59 39.207 39.207l-19.497 382.746zM721.617 283.965c0-74.388-60.613-135-135-135s-135 60.613-135 135v65.698c0 13.564 11.021 24.584 24.584 24.584s24.584-11.021 24.584-24.584v-65.698c0-47.471 38.571-86.044 86.044-86.044s86.044 38.571 86.044 86.044v65.698c0 13.564 11.021 24.584 24.584 24.584s24.584-11.021 24.584-24.584v-65.698zM332.937 481.909h361.976l-5.509 169.968c0 21.617-17.59 39.207-39.207 39.207h-118.469v45.989c0 97.699-79.474 177.385-177.385 177.385-97.699 0-177.385-79.474-177.385-177.385v-45.989h-118.257c-21.617 0-39.207-17.59-39.207-39.207l-19.497-611.418c0-21.617 17.59-39.207 39.207-39.207h198.79c-1.695 6.358-2.755 12.716-2.755 19.497l19.497 382.746c0 43.233 35.181 78.415 78.202 78.415zM255.583 736.86c0 54.678 44.505 98.971 98.971 98.971 54.678 0 98.971-44.505 98.971-98.971v-45.989h-197.944v45.989z" />
<glyph unicode="&#xe90a;" glyph-name="noun_categories_1721776_000000" d="M609.468 922.234h389.868v-272.569h-454.845v272.569h64.977zM609.468 717.809h324.887v136.282h-324.887zM89.643 922.234h389.868v-272.569h-454.845v272.569h64.977zM89.643 717.809h324.887v136.282h-324.887zM609.468 581.524h389.868v-272.563h-454.845v272.563h64.977zM609.468 377.1h324.887v136.282h-324.887zM89.643 581.524h389.868v-272.563h-454.845v272.563h64.977zM89.643 377.1h324.887v136.282h-324.887zM89.64 246.329h389.868v-272.563h-454.845v272.563h64.977zM89.64 41.908h324.887v136.282h-324.887z" />
<glyph unicode="&#xe90b;" glyph-name="noun_quotes_953503_000000" d="M790.89 559.112c122.223 0 221.111-100 221.111-222.223s-100-222.223-222.223-222.223-222.223 100-222.223 222.223c0 245.556 198.889 444.444 444.444 444.444 0 0-145.556-54.444-221.111-222.223zM456.445 336.89c0-122.223-100-222.223-222.223-222.223s-222.223 100-222.223 222.223v0c0 245.556 198.889 444.444 444.444 444.444 0 0-145.556-54.444-221.111-222.223 122.223 0 221.111-100 221.111-222.223z" />
<glyph unicode="&#xe90c;" glyph-name="np_sync_1628415_000000" d="M512 938.667c-282.675 0-512-229.325-512-512s229.325-512 512-512c282.675 0 512 229.325 512 512s-229.325 512-512 512zM753.879 467.503c0 20.4 17.28 36.12 37.68 36.12s36.12-15.72 36.12-36.12v-81.68c0-100.52-81.68-183.756-182.2-183.756h-177.48l15.72-14.12c14.12-15.72 14.12-37.68 0-51.84-15.72-15.72-37.68-15.72-51.84 0l-78.52 76.96c-6.28 6.28-11 15.72-11 25.12 0 11 4.72 20.4 11 26.68l78.52 76.96c14.12 14.12 36.12 14.12 51.84 0 14.12-14.12 14.12-36.12 0-51.84l-15.72-14.12h177.48c59.68 0 108.36 48.68 108.36 109.916v81.68zM270.163 385.824c0-20.4-17.28-37.68-36.12-37.68-20.4 0-37.68 17.28-37.68 37.68v81.68c0 100.52 83.24 183.756 183.756 183.756h175.923l-14.12 14.12c-14.12 14.12-14.12 37.68 0 51.84 14.12 14.12 37.68 14.12 51.84 0l76.96-76.96c6.28-6.28 11-15.72 11-26.68 0-9.44-4.72-18.84-11-25.12l-76.96-78.52c-14.12-14.12-37.68-14.12-51.84 0-14.12 14.12-14.12 37.68 0 51.84l14.12 15.72h-175.923c-61.24 0-109.916-48.68-109.916-109.916v-81.68z" />
<glyph unicode="&#xe90d;" glyph-name="iconmonstr-edit-11" d="M512 874.667c235.264 0 426.667-191.403 426.667-426.667s-191.403-426.667-426.667-426.667-426.667 191.403-426.667 426.667 191.403 426.667 426.667 426.667zM512 960c-282.752 0-512-229.248-512-512s229.248-512 512-512 512 229.248 512 512-229.248 512-512 512zM341.589 406.869l132.523-132.48-175.445-39.723 42.923 172.203zM768 567.467l-249.173-252.629-136.619 136.619 249.216 252.544 136.576-136.533z" />
<glyph unicode="&#xe90e;" glyph-name="iconmonstr-instagram-13" d="M649.941 704.512c-35.968 1.621-46.805 1.963-137.941 1.963s-101.931-0.341-137.899-1.963c-92.587-4.224-135.723-48.085-139.904-139.904-1.664-36.011-2.048-46.805-2.048-137.941s0.384-101.931 2.005-137.941c4.224-91.648 47.189-135.68 139.904-139.904 35.968-1.621 46.805-2.005 137.941-2.005 91.179 0 101.973 0.341 137.941 1.963 92.587 4.224 135.68 48.171 139.904 139.904 1.621 36.011 1.963 46.805 1.963 137.941s-0.341 101.931-1.963 137.899c-4.224 91.861-47.403 135.765-139.904 139.989zM512 251.392c-96.811 0-175.275 78.464-175.275 175.275s78.507 175.275 175.275 175.275 175.275-78.464 175.275-175.275c0-96.811-78.464-175.275-175.275-175.275zM694.229 567.894c-22.613 0-40.96 18.347-40.96 40.96s18.347 40.96 40.96 40.96 40.96-18.347 40.96-40.96-18.347-40.96-40.96-40.96zM625.792 426.667c0-62.848-50.944-113.792-113.792-113.792s-113.792 50.944-113.792 113.792c0 62.848 50.944 113.792 113.792 113.792s113.792-50.944 113.792-113.792zM810.667 938.667h-597.333c-117.803 0-213.333-95.531-213.333-213.333v-597.333c0-117.803 95.531-213.333 213.333-213.333h597.333c117.845 0 213.333 95.531 213.333 213.333v597.333c0 117.803-95.488 213.333-213.333 213.333zM851.285 285.952c-5.632-124.117-74.709-192.896-198.528-198.571-36.437-1.664-48.043-2.048-140.757-2.048s-104.277 0.384-140.715 2.048c-124.075 5.675-192.853 74.581-198.571 198.571-1.664 36.395-2.048 48-2.048 140.715 0 92.672 0.384 104.32 2.048 140.715 5.717 124.075 74.581 192.896 198.571 198.528 36.437 1.707 48 2.091 140.715 2.091s104.32-0.384 140.757-2.048c124.075-5.675 192.981-74.709 198.528-198.528 1.664-36.437 2.048-48.085 2.048-140.757 0-92.715-0.384-104.32-2.048-140.715z" />
<glyph unicode="&#xe90f;" glyph-name="np_search_2831401_000000" d="M458.067 777.906c15.759 0 31.555-1.071 47.237-3.136-5.049 0.688-10.136 1.339-15.3 1.989 30.982-4.207 61.198-12.316 89.961-24.403-4.59 1.912-9.18 3.825-13.693 5.737 28.381-12.048 55.078-27.616 79.558-46.358-3.825 2.983-7.726 6.043-11.551 8.988 24.020-18.665 45.592-40.238 64.258-64.335-2.983 3.825-6.043 7.726-8.988 11.551 18.665-24.288 34.156-50.871 46.090-79.099-1.912 4.59-3.825 9.18-5.737 13.693 11.857-28.495 20.081-58.33 24.288-88.929-0.688 5.049-1.339 10.136-1.989 15.3 4.284-32.053 4.284-64.565 0-96.693 0.688 5.049 1.339 10.136 1.989 15.3-4.207-30.599-12.316-60.433-24.288-88.929 1.912 4.59 3.825 9.18 5.737 13.693-11.935-28.228-27.463-54.773-46.090-79.099 2.983 3.825 6.043 7.726 8.988 11.551-18.665-24.097-40.161-45.707-64.258-64.335 3.825 2.983 7.726 6.043 11.551 8.988-24.403-18.818-51.177-34.424-79.558-46.358 4.59 1.912 9.18 3.825 13.693 5.737-28.763-12.048-58.98-20.195-89.961-24.403 5.049 0.688 10.136 1.339 15.3 1.989-31.555-4.131-63.493-4.131-95.049 0.076 5.049-0.688 10.136-1.339 15.3-1.989-31.173 4.207-61.581 12.622-90.573 24.784 4.59-1.912 9.18-3.825 13.693-5.737-27.846 11.857-54.122 27.232-78.104 45.707 3.825-2.983 7.726-6.043 11.551-8.988-24.097 18.665-45.822 40.353-64.449 64.449 2.983-3.825 6.043-7.726 8.988-11.551-18.436 24.020-33.85 50.297-45.707 78.104 1.912-4.59 3.825-9.18 5.737-13.693-12.24 28.993-20.578 59.362-24.784 90.573 0.688-5.049 1.339-10.136 1.989-15.3-4.207 31.747-4.207 63.876 0 95.622-0.688-5.049-1.339-10.136-1.989-15.3 4.207 31.173 12.622 61.581 24.784 90.573-1.912-4.59-3.825-9.18-5.737-13.693 11.857 27.846 27.232 54.122 45.707 78.104-2.983-3.825-6.043-7.726-8.988-11.551 18.665 24.097 40.353 45.822 64.449 64.449-3.825-2.983-7.726-6.043-11.551-8.988 24.020 18.436 50.297 33.85 78.104 45.707-4.59-1.912-9.18-3.825-13.693-5.737 28.993 12.24 59.362 20.578 90.573 24.784-5.049-0.688-10.136-1.339-15.3-1.989 15.873 2.065 31.823 3.136 47.811 3.136 14.726 0 30.14 6.426 40.544 16.83 9.945 9.945 17.403 26.315 16.83 40.544-0.688 14.841-5.546 30.217-16.83 40.544-11.169 10.327-25.053 16.83-40.544 16.83-22.758 0-45.134-2.601-67.623-5.929-17.327-2.601-34.424-6.426-51.177-11.475-36.414-11.092-72.214-27.232-104.115-48.117-63.57-41.615-117.344-100.522-149.167-169.906-16.371-35.648-28.993-72.596-34.424-111.607-3.136-22.567-5.661-44.942-5.546-67.701 0.191-22.49 2.754-44.675 6.196-66.859 11.781-76.498 48.5-148.1 99.444-205.852 24.938-28.304 54.773-52.86 86.634-73.133 32.512-20.731 68.847-36.795 105.868-47.505 38.325-11.092 79.175-16.447 119.028-15.873 48.654 0.688 98.377 9.639 143.625 27.998 23.714 9.639 46.855 20.272 68.657 33.966 19.316 12.163 37.675 26.086 55.002 41.003 31.058 26.851 57.947 59.477 79.481 94.475 12.316 19.966 21.878 41.003 30.867 62.652 7.344 17.595 13.311 35.877 17.671 54.39 10.021 42.15 14.076 86.634 10.136 129.858-2.104 23.714-5.661 47.505-11.551 70.569-5.929 23.141-14.535 45.134-24.020 67.013-16.524 38.058-40.161 72.673-67.395 103.959-27.157 31.058-60.242 58.062-95.546 79.367-22.184 13.387-45.899 24.097-70.071 33.352-20.348 7.841-41.5 13.693-63.034 17.595-26.008 4.705-52.478 7.65-78.984 7.726-14.726 0-30.217-6.426-40.544-16.83-9.945-9.945-17.403-26.315-16.83-40.544 0.688-14.841 5.546-30.217 16.83-40.544 11.207-10.327 24.977-16.791 40.582-16.791zM668.247 189.218l71.909-71.909c37.981-37.981 75.809-75.809 113.79-113.79l26.008-26.008c10.404-10.404 25.818-16.83 40.544-16.83 14.076 0 30.867 6.196 40.544 16.83 10.021 10.901 17.518 25.244 16.83 40.544-0.688 15.223-5.814 29.528-16.83 40.544l-71.909 71.909c-37.981 37.981-75.809 75.809-113.79 113.79-8.721 8.721-17.403 17.403-26.008 26.008-10.404 10.404-25.818 16.83-40.544 16.83-14.076 0-30.867-6.196-40.544-16.83-10.021-10.901-17.518-25.244-16.83-40.544 0.765-15.185 5.852-29.528 16.83-40.544z" />
<glyph unicode="&#xe910;" glyph-name="np_search_875352_000000" d="M965.464 46.108l-168.344 167.212c131.441 168.389 117.615 408.208-33.47 559.298-79.552 79.552-185.687 123.381-298.655 123.381-113.023 0-219.108-43.831-298.655-123.381-79.552-79.552-123.381-185.687-123.381-298.655 0-113.023 43.831-219.108 123.381-298.655 79.552-79.552 185.687-123.381 298.655-123.381 93.426 0 185.687 31.127 259.469 89.958l167.212-169.554c10.361-10.361 23.065-15 36.893-15s26.532 5.766 36.893 15c20.766 19.595 20.766 53.020 0 73.786zM783.293 473.965c0-85.318-33.425-164.918-93.426-224.873-59.958-59.958-140.679-93.426-224.873-93.426s-164.918 33.425-224.873 93.426c-59.958 59.958-93.426 140.679-93.426 224.873 0 85.318 33.425 164.918 93.426 224.873 59.958 59.958 140.679 93.426 224.873 93.426 85.318 0 164.918-33.425 224.873-93.426 59.958-60.003 93.426-139.558 93.426-224.873z" />
<glyph unicode="&#xe911;" glyph-name="menu-mobile" horiz-adv-x="1205" d="M138.644 841.211h927.624v-99.897h-927.624v99.897zM138.644 612.801h927.624v-99.897h-927.624v99.899zM138.644 384.392h927.624v-99.899h-927.624v99.899zM138.644 155.983h571.147v-99.897h-571.147v99.897z" />
<glyph unicode="&#xe912;" glyph-name="iconmonstr-id-card-5" horiz-adv-x="1232" d="M718.673 117.669v-29.004h-718.668v29.928c-0.308 79.926 3.182 125.562 95.172 146.815 100.819 23.254 200.252 44.096 152.46 132.287-141.783 261.441-40.451 409.641 111.702 409.641 149.278 0 253.074-142.707 111.804-409.589-46.457-87.678 49.434-108.519 152.46-132.287 92.246-21.355 95.428-67.298 95.070-147.788zM1232.008 807.334h-410.667v-102.667h410.667v102.667zM1232.008 602h-410.667v-102.667h410.667v102.667zM1232.008 396.667h-410.667v-102.667h410.667v102.667zM1232.008 191.334h-410.667v-102.667h410.667v102.667z" />
<glyph unicode="&#xe913;" glyph-name="np_sale_1653232_000000" d="M694.94 316.28c0-37.742-30.593-68.334-68.334-68.334-37.693 0-68.286 30.593-68.286 68.334 0 37.693 30.593 68.286 68.286 68.286 37.742 0 68.334-30.593 68.334-68.286zM466.83 545.574c0-37.693-30.593-68.286-68.334-68.286s-68.286 30.593-68.286 68.286c0 37.742 30.545 68.334 68.286 68.334s68.334-30.593 68.334-68.334zM78.888 306.509c9.769-10.96 13.438-25.637 12.199-39.027l-10.96-75.625c-7.338-50.035 26.828-97.592 78.055-106.122l73.194-13.438c13.438-3.669 25.637-12.199 32.928-24.398l35.358-67.095c24.398-45.127 79.294-63.425 124.418-40.266l67.095 32.928c13.438 6.1 28.067 6.1 40.266 0l67.095-32.928c46.366-21.968 101.262-3.669 124.418 40.266l35.358 67.095c7.338 12.199 19.538 20.729 32.928 24.398l73.194 13.438c50.035 8.53 84.154 56.135 78.055 106.122l-9.673 75.625c-1.239 14.629 2.43 28.067 12.199 39.027l52.465 54.896c35.358 36.597 35.358 95.162 0 131.762l-52.465 53.657c-8.53 10.96-13.438 24.398-12.199 39.027l10.96 75.625c7.338 50.035-26.828 97.592-78.055 106.122l-73.194 13.438c-13.438 3.669-25.637 12.199-32.928 24.398l-35.358 67.095c-24.398 45.127-79.294 63.425-124.418 40.266l-67.095-32.928c-13.438-6.1-28.067-6.1-40.266 0l-67.095 32.928c-46.366 21.968-101.262 3.669-124.418-40.266l-35.358-67.095c-7.338-12.199-19.538-20.729-32.928-24.398l-73.194-13.438c-50.035-8.53-84.154-56.135-78.055-106.122l9.769-75.625c1.239-14.629-3.669-28.067-12.199-39.027l-52.465-54.896c-35.358-36.597-35.358-95.162 0-131.762zM144.744 483.395c29.259 30.498 42.697 73.194 36.597 115.891 0 0-8.53 78.055-7.338 79.294l73.194 13.438c41.458 8.53 76.863 34.167 97.592 71.955l35.358 67.095c0 1.239 70.764-31.737 70.764-31.737 39.027-18.299 82.963-18.299 121.99 0l67.095 32.928c1.239 0 39.027-68.334 39.027-68.334 20.729-36.597 56.135-63.425 97.592-71.955l73.194-13.438c1.239 0-7.338-79.294-7.338-79.294-4.861-41.458 8.53-84.154 37.836-115.891l52.465-54.896c1.239-1.239-51.226-59.756-51.226-59.756-29.259-30.498-42.697-73.194-37.836-114.652l10.96-75.625c0-1.239-75.625-17.060-75.625-17.060-41.458-8.53-76.863-34.167-97.592-71.955l-35.358-67.095c0-1.239-70.764 31.737-70.764 31.737-39.027 18.299-82.963 18.299-121.99 0l-69.477-30.545c-1.239 0-39.027 68.334-39.027 68.334-20.729 36.597-56.135 63.425-97.592 71.955 0 0-75.625 15.868-75.625 17.060l10.96 75.625c4.861 41.458-8.53 84.154-37.836 114.652 0 0-53.657 58.565-52.465 59.756zM407.019 261.384l274.478 274.478c18.299 17.060 19.538 46.366 2.43 64.664-17.060 18.299-46.366 19.538-64.664 2.43-1.239-1.239-1.239-1.239-2.43-2.43l-274.43-274.527c-17.060-18.299-15.868-47.557 2.43-64.664 18.299-15.821 45.127-15.821 62.187 0.048z" />
<glyph unicode="&#xe914;" glyph-name="np_family_12224_000000" d="M286.698 628.547c85.281 0 155.362 70.082 155.362 155.362s-70.082 154.758-155.362 154.758-154.758-69.481-154.758-154.758 69.481-155.362 154.758-155.362zM286.698 868.111c46.92 0 84.201-37.28 84.201-84.201 0-46.88-37.28-84.201-84.201-84.201-46.88 0-84.201 37.28-84.201 84.201s37.28 84.201 84.201 84.201zM737.344 628.547c85.281 0 154.758 70.082 154.758 155.362-0.040 85.281-69.481 154.758-154.758 154.758s-155.362-69.481-155.362-154.758 70.082-155.362 155.362-155.362zM737.344 868.111c46.88 0 84.201-37.28 84.201-84.201 0-46.88-37.28-84.201-84.201-84.201s-84.201 37.28-84.201 84.201 37.28 84.201 84.201 84.201zM357.857 513.54c0-85.281 70.082-155.362 155.362-155.362s154.758 70.082 154.758 155.362-69.481 154.758-154.758 154.758c-85.321 0-155.362-69.481-155.362-154.758zM513.178 597.701c46.92 0 83.601-37.28 83.601-84.201s-36.72-84.201-83.601-84.201c-46.92 0-84.201 37.28-84.201 84.201 0.040 46.92 37.32 84.201 84.201 84.201zM169.86 1.824v544.32c0 7.24 5.2 11.839 12.44 11.839 19.64 0.080 35.521 16.040 35.44 35.68-0.080 19.56-15.92 35.4-35.44 35.44-45.36 0-83.001-37.64-83.001-83.001v-544.32c0-45.36 37.68-83.001 83.001-83.001h113.839v71.161h-113.798c-7.24 0.040-12.481 4.64-12.481 11.88zM841.659 629.141c-19.64 0.080-35.64-15.8-35.68-35.44-0.080-19.64 15.8-35.64 35.44-35.68h0.24c7.24 0 11.839-4.6 11.839-11.839v-544.32c0-7.24-4.6-11.839-11.839-11.839l-114.402-0.040v-71.161h114.443c45.36 0 83.001 37.64 83.001 83.001v544.32c0 45.36-37.68 83.001-83.041 83.001zM617.545 326.187c-9.36 0-18.84-3.52-25.48-10.080-6.68-6.6-10.64-15.52-10.64-24.92 0-9.36 4-18.92 10.64-25.48 6.68-6.6 16.12-10.2 25.48-10.080 7.24 0 11.839-4.6 11.839-11.839v-246.079c0-7.24-4.6-11.839-11.839-11.839h-209.318c-7.24 0-11.839 4.6-11.839 11.839v246.079c0 7.24 4.6 11.839 11.839 11.839 9.36 0 18.84 3.48 25.48 10.080 6.68 6.6 10.68 16.12 10.68 25.48s-4 18.32-10.68 24.92-16.12 10.2-25.48 10.080c-45.36 0-83.001-37.080-83.001-82.441v-246.079c0-45.36 37.64-83.001 83.001-83.001h209.318c45.36 0 83.001 37.68 83.001 83.001v246.079c0.040 45.36-37.64 82.441-83.001 82.441z" />
<glyph unicode="&#xe915;" glyph-name="np_users_1280902_000000" d="M512 938.667c-282.306 0-512-229.694-512-512s229.694-512 512-512 512 229.694 512 512-229.694 512-512 512zM512-37.16c-255.738 0-463.827 208.088-463.827 463.827s208.088 463.827 463.827 463.827 463.827-208.088 463.827-463.827-208.088-463.827-463.827-463.827zM426.576 374.625c-32.578 27.022-79.022 44.044-130.708 44.044-98.533 0-178.403-61.422-178.403-137.239 0-3.067 0.356-6.089 0.622-9.156h199.862c17.644 44.756 57.333 81.556 108.622 102.356zM362.178 554.758c0-48.622-33.779-88.044-75.467-88.044s-75.467 39.422-75.467 88.044c0 48.622 33.779 88.044 75.467 88.044s75.467-39.422 75.467-88.044zM604.047 379.916c58.089-19.422 103.378-58.844 122.618-107.644h179.291c0.267 3.022 0.622 6.044 0.622 9.156 0 75.778-79.867 137.239-178.403 137.239-48.311 0-92.044-14.8-124.131-38.754zM794.488 554.758c0-48.622-33.822-88.044-75.511-88.044s-75.467 39.422-75.467 88.044c0 48.622 33.779 88.044 75.467 88.044s75.511-39.422 75.511-88.044zM522.308 356.887c-98.533 0-178.403-61.422-178.403-137.239 0-3.111 0.356-6.089 0.622-9.156h355.601c0.267 3.022 0.622 6.044 0.622 9.156-0.044 75.822-79.956 137.239-178.449 137.239zM588.618 492.977c0-48.622-33.779-88.044-75.467-88.044s-75.511 39.422-75.511 88.044c0 48.667 33.822 88.089 75.511 88.089s75.467-39.422 75.467-88.089z" />
<glyph unicode="&#xe916;" glyph-name="noun_web-browser_1257735_000000" d="M928 960h-832c-53.019 0-96-42.981-96-96v0-832c0-53.019 42.981-96 96-96v0h832c53.019 0 96 42.981 96 96v0 832c0 53.019-42.981 96-96 96v0zM960 32c0-17.673-14.327-32-32-32v0h-832c-17.673 0-32 14.327-32 32v0 608h896zM960 704h-896v160c0 17.673 14.327 32 32 32v0h832c17.673 0 32-14.327 32-32v0zM128 832h64v-64h-64v64zM256 832h64v-64h-64v64zM832 832h64v-64h-64v64zM480 416h64c17.673 0 32-14.327 32-32v-64c0-17.673-14.327-32-32-32h-64c-17.673 0-32 14.327-32 32v64c0 17.673 14.327 32 32 32zM672 416h64c17.673 0 32-14.327 32-32v-64c0-17.673-14.327-32-32-32h-64c-17.673 0-32 14.327-32 32v64c0 17.673 14.327 32 32 32zM288 416h64c17.673 0 32-14.327 32-32v-64c0-17.673-14.327-32-32-32h-64c-17.673 0-32 14.327-32 32v64c0 17.673 14.327 32 32 32z" />
<glyph unicode="&#xe917;" glyph-name="np_users_1280900_000000" d="M735.685 458.888c50.4 0 91.244 40.844 91.244 91.244s-40.844 91.244-91.244 91.244c-50.4 0-91.244-40.844-91.244-91.244s40.844-91.244 91.244-91.244zM735.685 593.691c24 0 43.556-19.557 43.556-43.556 0-24-19.557-43.556-43.556-43.556s-43.556 19.557-43.556 43.556c0 24 19.557 43.556 43.556 43.556zM299.064 458.888c50.4 0 91.244 40.844 91.244 91.244s-40.844 91.244-91.244 91.244c-50.4 0-91.244-40.844-91.244-91.244s40.844-91.244 91.244-91.244zM299.064 593.691c24 0 43.556-19.557 43.556-43.556 0-24-19.557-43.556-43.556-43.556s-43.556 19.557-43.556 43.556c0.044 24 19.557 43.556 43.556 43.556zM269.516 386.707h58.755c-19.911-29.512-31.556-65.022-31.556-103.155v-26.044c15.956-2.444 31.911-4.667 47.911-6.578-0.044 1.333-0.222 2.667-0.222 4v28.622c0 75.644 61.555 137.204 137.204 137.204h71.555c75.644 0 137.204-61.555 137.204-137.204v-28.622c0-1.733-0.178-3.378-0.267-5.067 16.044 1.822 32 4 47.955 6.311v27.377c0 38.178-11.644 73.689-31.556 103.155h58.711c58.489 0 106.267-46.267 108.978-104.089l47.155 10.889c-8.044 79.067-75.023 140.936-156.138 140.936l-59.111-0.044c-13.644 0-26.844-1.956-39.468-5.244-31.378 24.489-70.711 39.244-113.467 39.244h-71.555c-42.8 0-82.134-14.756-113.467-39.244-12.622 3.289-25.822 5.244-39.468 5.244h-59.155c-80.355 0-146.751-60.755-155.819-138.706l46.933-11.022c3.778 56.889 51.067 102.045 108.889 102.045zM517.381 480.358c50.4 0 91.244 40.844 91.244 91.244s-40.844 91.244-91.244 91.244c-50.4 0-91.244-40.844-91.244-91.244s40.844-91.244 91.244-91.244zM517.381 615.161c24 0 43.556-19.557 43.556-43.556s-19.557-43.556-43.556-43.556-43.556 19.557-43.556 43.556c0.044 24 19.557 43.556 43.556 43.556zM158.446 56.889c18.044-17.244 37.332-33.2 57.733-47.733 83.644-59.422 185.685-94.489 295.822-94.489s212.173 35.067 295.776 94.489c20.4 14.489 39.689 30.444 57.733 47.733 37.556 35.91 69.689 77.378 94.978 123.199 20.711 37.556 36.889 78 47.733 120.537 10.267 40.311 15.778 82.578 15.778 126.043 0 282.305-229.694 511.999-511.999 511.999s-511.999-229.694-511.999-511.999c0-67.6 13.289-132.175 37.2-191.283 12.933-31.956 28.933-62.311 47.733-90.668 21.2-32 45.865-61.422 73.511-87.823zM47.735 426.666c0 256 208.27 464.269 464.269 464.269s464.269-208.27 464.269-464.269c0-43.111-6.044-84.844-17.111-124.484-5.067-18.178-11.156-35.956-18.311-53.2-31.822-76.489-83.467-142.665-148.536-192.136-24.089-18.311-50-34.311-77.422-47.733-61.333-29.867-130.173-46.711-202.889-46.711s-141.551 16.844-202.889 46.755c-27.422 13.378-53.333 29.422-77.422 47.733-63.822 48.533-114.802 113.111-146.751 187.779-8.667 20.266-15.911 41.289-21.644 62.889-10.089 38-15.556 77.911-15.556 119.114z" />
<glyph unicode="&#xe918;" glyph-name="wc" horiz-adv-x="1440" d="M1013.861-69.757h230.035l-87.030 145.071c-0.923 1.842-0.923 4.145 0 5.757 0.912 1.842 2.991 2.993 5.059 2.993h20.723c111.221 0 209.778 69.31 248.001 173.16h-416.778l-0.010-326.981zM1125.305 534.001h-111.444v-265.267h111.444v265.267zM1069.583 396.763c-10.818 0-19.801 8.981-19.801 19.803 0 11.052 8.983 20.033 19.801 20.033 11.051 0 19.801-8.981 19.801-20.033 0-10.823-8.75-19.803-19.801-19.803zM1423.897 304.224h-261.090c-6.367 0-11.517-5.152-11.517-11.513s5.15-11.513 11.517-11.513h261.059c6.367 0 11.517 5.152 11.517 11.513s-5.12 11.513-11.487 11.513v0zM589.397 447.443l-415.48 239.961c-3.209 1.346-6.931-0.040-8.436-3.168l-14.138-24.515h-0.040c-2.020-2.971-1.465-6.97 1.267-9.307l415.48-239.92c3.366-1.228 7.128 0.317 8.674 3.565l14.138 24.713c1.029 1.346 1.465 3.009 1.188 4.673s-1.267 3.089-2.653 4v0zM145.599 466.26c4.951-3.010 10.93-3.881 16.515-2.337 5.584 1.506 10.336 5.268 13.070 10.336l35.049 60.832c5.861 10.336 2.218 23.446-8.119 29.267s-23.406 2.179-29.267-8.118l-35.248-60.832c-2.891-4.911-3.643-10.772-2.138-16.278s5.188-10.139 10.139-12.871v0zM282.701 386.611c4.951-3.010 10.891-3.842 16.515-2.337 5.584 1.506 10.297 5.268 13.030 10.376l35.287 60.832c3.010 4.951 3.843 10.891 2.337 16.515-1.505 5.584-5.267 10.297-10.376 13.030-4.911 3.050-10.851 3.922-16.436 2.456-5.584-1.505-10.336-5.188-13.109-10.257l-34.455-61.029c-3.050-4.871-4.039-10.733-2.693-16.317s4.911-10.376 9.901-13.267h-0.002zM145.193 306.779c4.911-3.010 10.851-3.922 16.436-2.416 5.584 1.465 10.336 5.148 13.109 10.218l35.089 61.069c3.010 4.911 3.881 10.851 2.416 16.436s-5.188 10.336-10.257 13.109c-4.951 3.010-10.891 3.881-16.515 2.337-5.584-1.506-10.297-5.268-13.030-10.336l-35.287-60.832c-3.010-4.951-3.842-10.93-2.337-16.515 1.506-5.584 5.268-10.336 10.376-13.070h0.001zM282.267 227.567c4.951-3.010 10.93-3.843 16.515-2.337s10.297 5.267 13.070 10.376l35.049 61.663c5.822 10.336 2.178 23.406-8.119 29.267-10.336 5.822-23.446 2.178-29.267-8.159l-35.287-61.228c-3.010-4.951-3.842-10.93-2.336-16.515 1.544-5.584 5.267-10.336 10.376-13.070v0.002zM476.606 406.056c-4.95 3.010-10.93 3.842-16.515 2.336-5.583-1.544-10.336-5.267-13.070-10.376l-35.049-60.832c-5.861-10.336-2.217-23.406 8.119-29.267 10.336-5.822 23.406-2.178 29.267 8.159l35.287 61.029h-0.040c2.811 4.911 3.565 10.693 2.020 16.159-1.505 5.426-5.109 10.020-10.020 12.792v0zM69.56 334.023c-4.911 3.010-10.851 3.921-16.436 2.416-5.584-1.466-10.336-5.148-13.109-10.218l-35.287-61.069c-3.010-4.951-3.842-10.891-2.337-16.515 1.505-5.584 5.267-10.297 10.376-13.030 4.99-3.327 11.169-4.317 16.99-2.773 5.782 1.506 10.693 5.426 13.426 10.772l35.049 60.832c2.97 5.030 3.723 11.090 2.059 16.673-1.624 5.584-5.505 10.257-10.733 12.911l0.002 0.001zM206.662 255.012c-4.95 3.050-10.891 3.921-16.475 2.456-5.583-1.505-10.336-5.188-13.109-10.257l-35.287-61.268c-5.822-10.376-2.138-23.525 8.238-29.346s23.525-2.138 29.386 8.238l35.049 60.832c2.971 4.911 3.802 10.812 2.337 16.357-1.505 5.505-5.148 10.218-10.139 12.99h0.001zM343.73 175.808c-4.951 3.010-10.93 3.881-16.515 2.337-5.584-1.506-10.297-5.268-13.070-10.336l-35.248-60.634c-5.862-10.376-2.139-23.525 8.238-29.346 10.376-5.862 23.525-2.139 29.346 8.238l35.049 61.029c5.743 10.098 2.257 22.931-7.803 28.713h0.002zM885.953 698.577c2.020 19.762 2.020 39.644 0 59.367-3.208 42.891-19.683 83.683-47.128 116.797-15.524 17.703-34.772 31.683-56.396 40.99-25.822 10.614-53.585 15.802-81.505 15.208-44.317 0.792-87.762-11.96-124.634-36.555-29.505-20.396-54.059-47.168-71.802-78.337-4.238-7.169-8.040-14.377-11.604-21.109l-0.040-0.040c-18.376 8.396-37.862 14.257-57.861 17.346-26.812 3.96-54.059 3.406-80.673-1.703-27.129-5.426-53.228-15.129-77.307-28.713-25.070-14.178-47.762-32.198-67.168-53.465-3.762-4.198-5.663-9.783-5.308-15.406 0.515-5.267 3.486-9.98 8.040-12.673l376.193-217.777c4.752-2.416 10.415-2.416 15.208 0 5.109 2.376 8.95 6.852 10.535 12.277 8.792 27.287 13.070 55.802 12.673 84.475-0.158 27.604-4.793 55.010-13.703 81.109-8.832 25.623-21.981 49.544-38.891 70.773-5.227 6.495-10.772 12.673-16.673 18.574 4.238 9.901 9.188 19.525 14.772 28.713 11.961 20.753 28.317 38.535 47.961 52.198 23.921 15.366 51.842 23.208 80.278 22.575 29.346 2.337 58.218-8.475 78.772-29.545 16.198-20.832 25.941-45.94 28.079-72.238 1.664-15.247 1.664-30.614 0-45.861-0.079-1.664-0.079-3.366 0-5.069l1.070-744.56c0.237-21.584 17.901-38.969 39.485-38.847 10.495-0.243 20.634 3.802 28.118 11.165 7.484 7.326 11.683 17.426 11.604 27.921l-2.095 742.411z" />
<glyph unicode="&#xe919;" glyph-name="noun_1058874_cc_filter" horiz-adv-x="819" d="M336.303 392.542c-14.684-49.336-60.387-85.313-114.492-85.313s-99.809 35.976-114.492 85.313h-73.173c-18.86 0-34.149 15.147-34.149 34.125 0 18.847 15.27 34.125 34.149 34.125h73.173c14.684 49.336 60.387 85.313 114.492 85.313s99.809-35.976 114.492-85.313h448.551c18.86 0 34.149-15.147 34.149-34.125 0-18.847-15.27-34.125-34.149-34.125h-448.551zM482.697 170.728c14.684 49.336 60.387 85.313 114.492 85.313s99.809-35.976 114.492-85.313h73.173c18.86 0 34.149-15.147 34.149-34.125 0-18.847-15.27-34.125-34.149-34.125h-73.173c-14.684-49.336-60.387-85.313-114.492-85.313s-99.809 35.976-114.492 85.313h-448.551c-18.86 0-34.149 15.147-34.149 34.125 0 18.847 15.27 34.125 34.149 34.125h448.551zM482.697 750.857c14.684 49.336 60.387 85.313 114.492 85.313s99.809-35.976 114.492-85.313h73.173c18.86 0 34.149-15.147 34.149-34.125 0-18.847-15.27-34.125-34.149-34.125h-73.173c-14.684-49.336-60.387-85.313-114.492-85.313s-99.809 35.976-114.492 85.313h-448.551c-18.86 0-34.149 15.147-34.149 34.125 0 18.847 15.27 34.125 34.149 34.125h448.551zM597.188 665.543c28.27 0 51.188 22.918 51.188 51.188s-22.918 51.188-51.188 51.188c-28.27 0-51.188-22.918-51.188-51.188s22.918-51.188 51.188-51.188zM597.188 85.415c28.27 0 51.188 22.918 51.188 51.188s-22.918 51.188-51.188 51.188c-28.27 0-51.188-22.918-51.188-51.188s22.918-51.188 51.188-51.188zM221.812 477.855c-28.27 0-51.188-22.918-51.188-51.188s22.918-51.188 51.188-51.188c28.27 0 51.188 22.918 51.188 51.188s-22.918 51.188-51.188 51.188z" />
<glyph unicode="&#xe91a;" glyph-name="np_user-group_1550796_000000" d="M511.831 384.709c72.928 0 132.248 59.32 132.248 132.248s-59.32 132.248-132.248 132.248c-72.928 0-132.248-59.32-132.248-132.248 0.056-72.928 59.375-132.248 132.248-132.248zM511.831 358.603c-119.028 0-215.844-96.811-215.844-215.844 0-7.887 6.387-14.219 14.219-14.219h403.513c7.887 0 14.219 6.332 14.219 14.219 0 1-0.111 2-0.278 2.944-1.555 117.64-97.755 212.901-215.844 212.901zM807.884 460.297c72.928 0 132.248 59.32 132.248 132.248s-59.32 132.248-132.248 132.248-132.248-59.32-132.248-132.248c0-72.928 59.32-132.248 132.248-132.248zM1023.714 221.304c-1.555 117.64-97.811 212.901-215.901 212.901-58.042 0-112.474-22.717-153.351-63.93-2.944-2.999-4.443-7.109-4.055-11.331 0.389-4.166 2.611-7.998 6.054-10.387 47.323-32.937 83.814-80.815 102.699-134.858 2-5.721 7.387-9.553 13.441-9.553h237.165c7.887 0 14.219 6.332 14.219 14.219 0.056 1.055-0.056 2-0.278 2.944zM215.905 460.297c72.928 0 132.248 59.32 132.248 132.248s-59.32 132.248-132.248 132.248c-72.928 0-132.248-59.32-132.248-132.248s59.32-132.248 132.248-132.248zM367.252 348.55c3.444 2.388 5.665 6.221 6.054 10.387s-1.111 8.331-4.055 11.331c-40.88 41.213-95.367 63.93-153.351 63.93-119.028 0-215.901-96.811-215.901-215.844 0-7.887 6.387-14.219 14.219-14.219h237.001c6.054 0 11.442 3.832 13.441 9.553 18.829 54.043 55.265 101.921 102.588 134.858z" />
<glyph unicode="&#xe91b;" glyph-name="noun_Sync_795699_000000" d="M353.49 511.030l-10.82 10.82h280.1c20.38 0 36.925 16.54 36.925 36.925s-16.54 36.925-36.925 36.925h-280.1l10.82 10.82c14.42 14.42 14.42 37.79 0 52.21-14.4 14.42-37.81 14.42-52.21 0l-73.845-73.845c-14.42-14.42-14.42-37.79 0-52.21l73.845-73.845c7.2-7.22 16.65-10.82 26.105-10.82s18.905 3.6 26.105 10.82c14.42 14.42 14.42 37.79 0 52.21zM796.565 363.335l-73.845 73.845c-14.42 14.42-37.79 14.42-52.21 0s-14.42-37.79 0-52.21l10.82-10.82h-280.1c-20.38 0-36.925-16.54-36.925-36.925s16.54-36.925 36.925-36.925h280.1l-10.82-10.82c-14.42-14.42-14.42-37.79 0-52.21 7.22-7.22 16.65-10.82 26.105-10.82s18.885 3.6 26.105 10.82l73.845 73.845c14.42 14.42 14.42 37.79 0 52.21zM512 928c-264.665 0-480-215.335-480-480 0-264.685 215.335-480 480-480 264.685 0 480 215.315 480 480 0 264.665-215.315 480-480 480zM512 41.845c-223.955 0-406.155 182.195-406.155 406.155s182.195 406.155 406.155 406.155 406.155-182.195 406.155-406.155-182.195-406.155-406.155-406.155z" />
<glyph unicode="&#xe91c;" glyph-name="np_car-dimensions_957953_000000" d="M568.846 521.439c-21.616 0-42.809-6.163-61.059-17.778l-116.811-74.334c-7.727-4.93-16.213-8.581-25.126-10.761l-114.109-28.539c-25.363-6.305-43.14-29.108-43.093-55.229v-45.606c0-31.431 25.458-56.889 56.889-56.889h42.666c0-39.253 31.858-71.111 71.111-71.111s71.111 31.81 71.111 71.111h312.884c0-39.253 31.858-71.111 71.111-71.111s71.111 31.81 71.111 71.111h14.222c47.123 0 85.332 38.21 85.332 85.332v75.851c0 15.692-12.753 28.445-28.445 28.445h-16.498c-16.64 0-32.426 7.253-43.235 19.864l-51.201 59.78c-10.809 12.61-26.595 19.911-43.235 19.864zM75.897 521.475h-37.926v-360.3h37.926zM0.003 540.444h113.777v-37.926h-113.777zM0.003 180.156h113.777v-37.926h-113.777zM1005.034 635.216v37.926h-796.44v-37.926zM1024.003 711.152v-113.777h-37.926v113.777zM227.551 711.152v-113.777h-37.926v113.777z" />
<glyph unicode="&#xe91d;" glyph-name="np_car-dimensions_957901_000000" d="M549.877 521.476c-25.221 0-49.967-7.206-71.253-20.717l-116.812-74.335c-6.021-3.84-12.563-6.637-19.484-8.391l-114.156-28.492c-33.707-8.391-57.505-38.969-57.458-73.671v-45.511c0-41.671 34.181-75.188 75.852-75.899l25.695-0.427c9.861-41.718 45.938-70.542 88.083-70.542 42.099 0 79.17 28.966 87.846 70.874h279.231c9.102-41.292 45.889-71.016 87.988-71.016 39.065-1.138 79.455 29.25 88.462 70.874 52.338-0.427 101.167 47.123 101.167 104.438v75.804c0 25.979-21.428 47.36-47.406 47.36h-16.498c-11.093 0-21.617 4.836-28.824 13.227l-51.201 59.733c-14.412 16.782-35.508 26.501-57.647 26.501zM549.877 483.502h253.624c11.093 0 21.523-4.836 28.729-13.227l51.247-59.733c14.412-16.83 35.461-26.501 57.647-26.501h16.498c5.452 0 9.387-4.030 9.387-9.481v-75.757c0-36.835-29.44-66.323-66.275-66.323h-14.222c-10.477 0-19.010-8.486-19.058-18.963 0-28.966-23.087-52.101-52.053-52.101-29.013 0-52.148 23.134-52.148 52.101 0 10.477-8.486 18.916-18.963 18.963h-312.885c-10.477 0-18.963-8.486-18.963-18.963 0-28.966-23.134-52.101-52.148-52.101s-52.053 23.134-52.053 52.101c0 10.477-8.533 18.963-19.058 18.963h-42.667c-21.144 0-37.831 16.782-37.831 37.926v45.606c0 17.493 11.71 32.474 28.681 36.693l114.062 28.587c10.856 2.702 21.191 7.159 30.673 13.179l116.812 74.24c15.218 9.671 32.853 14.792 50.868 14.792zM56.939 502.519h-37.926v-360.301h37.926zM-18.962 521.476h113.778v-37.926h-113.778zM-18.962 161.186h113.778v-37.926h-113.778zM986.067 616.248v37.926h-796.394v-37.926zM1005.036 692.148v-113.778h-37.926v113.778zM208.642 692.148v-113.778h-37.926v113.778z" />
<glyph unicode="&#xe91e;" glyph-name="noun_delivery_873684_000000" horiz-adv-x="1136" d="M234.245 449.498h-170.254v-35.957h170.254v-250.106h61.956c8.435-51.535 53.149-91.013 107.028-91.013s98.592 39.491 107.028 91.013h349.722c8.435-51.535 53.149-91.013 107.028-91.013s98.592 39.491 107.042 91.013h61.956v327.447l-171.611 171.611h-174.709v161.088h-555.433v-143.666h-119.048v-35.957h119.048v-79.251h-234.256v-35.957h234.256v-79.251zM403.247 108.378c-40.042 0-72.632 32.578-72.632 72.632s32.578 72.632 72.632 72.632 72.632-32.578 72.632-72.632c-0.013-40.055-32.593-72.632-72.632-72.632zM967.024 108.378c-40.042 0-72.632 32.578-72.632 72.632s32.578 72.632 72.632 72.632c40.055 0 72.632-32.578 72.632-72.632s-32.578-72.632-72.632-72.632zM789.691 626.549h159.821l150.551-150.551v-276.603h-26.126c-8.782 51.127-53.316 90.196-106.915 90.196s-98.134-39.068-106.9-90.196h-349.977c-8.782 51.127-53.304 90.196-106.9 90.196s-98.134-39.068-106.9-90.196h-26.126v104.994h519.489v322.162zM270.203 564.705v79.251h113.824v35.957h-113.824v107.72h483.532v-447.29h-483.532v73.196h139.427v35.957h-139.427v79.251h62.622v35.957h-62.622zM1043.816 451.917l-118.397 118.397h-78.932v-197.327h197.327v78.932zM1007.872 408.944h-125.424v125.424h28.087l97.34-97.34v-28.087z" />
<glyph unicode="&#xe91f;" glyph-name="checkbox-square-percent" d="M790.498 73.991l-80.993 24.69-20.416-82.153-72.274 44.074-40.197-74.497-59.056 60.644-57.463-62.17-42.12 73.434-71.114-45.93-22.535 81.621-80.297-26.808-1.526 84.637-84.436-5.996 19.586 82.385-83.276 15.208 39.434 74.93-76.884 35.459 56.834 62.767-65.65 53.452 70.65 46.662-50.307 68.098 80.030 27.603-31.778 78.471 84.374 6.826-11.267 83.911 83.447-14.347 9.939 84.076 77.249-34.666 30.557 78.972 66.212-52.792 49.211 68.898 51.003-67.573 64.82 54.483 32.578-78.141 76.322 36.65 12.131-83.777 83.044 16.539-9.079-84.173 84.54-4.64-29.727-79.271 80.725-25.518-48.516-69.393 71.847-44.807-64.258-55.143 58.458-61.242-75.956-37.413 41.357-73.868-82.849-17.363 21.704-81.823-84.57 3.779zM295.769 503.576c4.97-12.327 12.064-23.133 21.24-32.412s20.184-16.637 32.975-22.071c12.791-5.434 27.077-8.151 42.883-8.151 15.642 0 29.891 2.752 42.749 8.285s23.859 12.925 32.975 22.205c9.079 9.28 16.173 20.050 21.24 32.279s7.589 25.154 7.589 38.738c0 13.786-2.583 26.845-7.723 39.171s-12.363 23.133-21.637 32.412c-9.28 9.28-20.312 16.637-33.107 22.071s-26.808 8.12-42.086 8.12-29.293-2.717-42.053-8.12c-12.791-5.434-23.829-12.791-33.107-22.071s-16.503-20.080-21.637-32.412c-5.135-12.327-7.723-25.386-7.723-39.171 0-13.584 2.485-26.576 7.424-38.872zM407.911 577.774c4.671-1.825 8.718-4.408 12.131-7.723s6.099-7.326 8.12-11.997c2.021-4.671 3.047-9.877 3.047-15.575 0-5.336-1.026-10.34-3.047-15.043s-4.738-8.718-8.12-12.131-7.455-6.099-12.131-8.12c-4.707-2.021-9.707-3.047-15.043-3.047s-10.34 1.026-15.043 3.047c-4.671 2.021-8.779 4.774-12.259 8.285s-6.197 7.589-8.12 12.259c-1.923 4.671-2.918 9.61-2.918 14.744 0 5.702 0.959 10.904 2.918 15.575s4.64 8.718 8.12 11.997c3.511 3.315 7.589 5.867 12.259 7.723s9.707 2.752 15.043 2.752c5.336 0 10.34-0.928 15.043-2.752zM398.662 220.598l282.741 424.775h-73.368l-282.711-424.775zM520.151 285.948c5.069-12.327 12.131-23.133 21.24-32.412s20.080-16.637 32.975-22.071c12.889-5.403 27.14-8.12 42.749-8.12s29.891 2.752 42.749 8.285c12.889 5.501 23.859 12.925 32.975 22.205s16.173 20.117 21.24 32.412c5.037 12.327 7.589 25.286 7.589 38.903 0 13.786-2.583 26.845-7.723 39.171s-12.363 23.096-21.637 32.376c-9.28 9.311-20.312 16.667-33.107 22.071s-26.778 8.12-42.053 8.12-29.293-2.717-42.086-8.12c-12.791-5.403-23.829-12.791-33.107-22.071s-16.503-20.080-21.637-32.376c-5.135-12.327-7.723-25.386-7.723-39.171s2.52-26.845 7.589-39.171zM632.127 360.15c4.671-1.825 8.718-4.408 12.131-7.723s6.099-7.259 8.12-11.863c2.021-4.605 3.047-9.744 3.047-15.44 0-5.336-1.026-10.34-3.047-15.043s-4.738-8.779-8.12-12.259c-3.413-3.511-7.455-6.227-12.131-8.151s-9.707-2.882-15.043-2.882c-5.336 0-10.34 1.026-15.043 3.047s-8.779 4.774-12.259 8.285c-3.511 3.511-6.227 7.558-8.151 12.131s-2.918 9.579-2.918 14.915c0 5.702 0.959 10.837 2.918 15.44s4.64 8.547 8.151 11.863c3.48 3.315 7.589 5.867 12.259 7.723s9.707 2.752 15.043 2.752c5.336 0 10.34-0.928 15.043-2.752z" />
<glyph unicode="&#xe920;" glyph-name="np_bed_4262638_000000" d="M958.512 938.667h-893.027c-13.163 0-23.814-10.651-23.814-23.814v-107.163c0-6.326 2.512-12.372 6.977-16.837s10.512-6.977 16.837-6.977h32.744v-802.045c0.047-37.070 30.093-67.117 67.163-67.163h693.216c37.070 0.047 67.117 30.093 67.163 67.163v802.045h32.744c6.326 0 12.372 2.512 16.837 6.977s6.977 10.512 6.977 16.837v107.163c0 6.326-2.512 12.372-6.977 16.837s-10.512 6.977-16.837 6.977zM878.139-18.17c-0.047-10.744-8.791-19.488-19.535-19.535h-693.216c-10.744 0.047-19.488 8.791-19.535 19.535v351.626c1.302 0.372 2.558 0.93 3.674 1.628 141.444 88.838 315.905 98.233 500.798 108.233 74.419 3.907 151.351 8.326 227.77 17.861zM878.139 509.18c-76.698-10-154.791-14.279-230.424-18.326-182.189-9.767-354.698-19.302-501.858-102.745v395.766h732.282zM934.698 831.504h-845.399v59.535h845.399zM232.183 545.735h226.234c6.326 0 12.372 2.512 16.837 6.977s6.977 10.512 6.977 16.837v154.791c0 6.326-2.512 12.372-6.977 16.837s-10.512 6.977-16.837 6.977h-226.234c-13.163 0-23.814-10.651-23.814-23.814v-154.791c0-6.326 2.512-12.372 6.977-16.837s10.512-6.977 16.837-6.977zM255.997 700.527h178.605v-107.163h-178.605zM565.58 545.735h226.234c6.326 0 12.372 2.512 16.837 6.977s6.977 10.512 6.977 16.837v154.791c0 6.326-2.512 12.372-6.977 16.837s-10.512 6.977-16.837 6.977h-226.234c-13.163 0-23.814-10.651-23.814-23.814v-154.791c0-6.326 2.512-12.372 6.977-16.837s10.512-6.977 16.837-6.977zM589.394 700.527h178.605v-107.163h-178.605z" />
<glyph unicode="&#xe921;" glyph-name="noun_fashion_1066446_000000" d="M785.047 4.271h-546.091c-18.85 0-34.131 15.281-34.131 34.131v0 464.007l-44.2-44.029c-6.027-6.431-14.572-10.439-24.055-10.439-0.483 0-0.963 0.010-1.441 0.031l0.068-0.003c-9.829 0.367-18.545 4.836-24.539 11.734l-102.428 119.499c-5.115 5.933-8.23 13.716-8.23 22.228 0 6.335 1.726 12.267 4.733 17.351l-0.087-0.159c79.684 133.519 207.114 231.521 358.192 271.108l4.106 0.914c2.561 0.689 5.501 1.084 8.533 1.084 18.85 0 34.131-15.281 34.131-34.131 0-0.021 0-0.042 0-0.063v0.003c0-56.55 45.843-102.392 102.392-102.392s102.392 45.843 102.392 102.392v0c0 0.018 0 0.039 0 0.060 0 18.85 15.281 34.131 34.131 34.131 3.032 0 5.972-0.395 8.771-1.137l-0.238 0.054c155.183-40.501 282.614-138.503 360.807-269.33l1.491-2.691c2.921-4.926 4.647-10.858 4.647-17.193 0-8.511-3.115-16.294-8.268-22.273l0.037 0.044-102.392-119.457c-6.029-6.94-14.746-11.408-24.512-11.773l-0.062-0.002c-0.549-0.033-1.192-0.051-1.839-0.051-9.245 0-17.6 3.809-23.582 9.942l-0.007 0.007-44.2 44.541v-464.007c0-18.85-15.281-34.131-34.131-34.131v0zM273.086 72.533h477.83v511.961c0 0.008 0 0.017 0 0.027 0 18.85 15.281 34.131 34.131 34.131 9.389 0 17.893-3.792 24.064-9.927l-0.002 0.002 76.452-75.428 62.118 72.699c-64.246 96.514-157.492 169.281-267.165 206.437l-3.662 1.077c-20.133-73.451-86.293-126.532-164.851-126.532s-144.719 53.082-164.571 125.335l-0.281 1.198c-113.386-38.472-206.63-111.459-269.628-206.278l-1.199-1.919 62.118-72.016 76.452 76.452c6.171 6.144 14.681 9.941 24.079 9.941 18.85 0 34.131-15.281 34.131-34.131 0-0.375-0.006-0.749-0.018-1.122l0.002 0.055z" />
<glyph unicode="&#xe922;" glyph-name="iconmonstr-delivery-8-support" d="M164.181 128h-36.181c-33.963 0-66.517 13.483-90.496 37.504-24.021 23.979-37.504 56.533-37.504 90.496v128c0 306.133 229.419 554.667 512 554.667s512-248.533 512-554.667v-128c0-33.963-13.483-66.517-37.504-90.496-23.979-24.021-56.533-37.504-90.496-37.504h-36.181c-114.773-197.675-294.571-213.333-347.819-213.333s-233.045 15.659-347.819 213.333zM853.333 378.71c-25.643-10.069-54.144 7.68-54.144 34.005 0 12.971-0.939 26.027-2.261 39.040-75.136 10.837-154.368 82.176-157.824 158.848-56.107-85.547-193.067-177.92-300.544-177.92 46.336 29.824 78.464 118.315 81.195 149.675-24.789-46.592-123.648-133.803-194.176-148.779l-0.768-20.864c0-26.411-28.544-44.032-54.144-34.005v-160.896c12.245-10.923 26.965-19.797 44.416-25.344 9.6-3.072 17.579-9.557 22.229-18.091 94.123-172.629 231.509-174.379 274.688-174.379 39.637 0 158.677 1.493 250.752 135.211-45.696-18.475-96.64-25.771-160.384-27.861-15.787-25.6-50.347-43.349-90.368-43.349-54.955 0-99.541 33.451-99.541 74.667s44.587 74.667 99.541 74.667c39.808 0 74.155-17.536 90.112-42.88 81.067 1.109 185.003 14.251 251.221 112.853v95.403zM384 405.334c29.269 0 53.035-28.672 53.035-64s-23.765-64-53.035-64-53.035 28.672-53.035 64 23.765 64 53.035 64zM640 405.334c29.269 0 53.035-28.672 53.035-64s-23.765-64-53.035-64-53.035 28.672-53.035 64 23.765 64 53.035 64zM873.728 469.334h57.899c-36.523 218.368-210.645 384-419.627 384s-383.104-165.632-419.627-384h57.899c22.187 171.648 145.536 329.472 361.728 329.472s339.541-157.824 361.728-329.472z" />
<glyph unicode="&#xe923;" glyph-name="np_bed_4199655_000000" d="M112.068 791.247c-15.437-1.553-27.158-14.591-27.111-30.076v-256.516c-48.997-15.815-84.956-61.423-84.956-115.503v-188.076c-0.047-8.001 3.106-15.673 8.755-21.369 5.648-5.648 13.32-8.849 21.321-8.896h28.005v-78.695c0.047-16.662 13.602-30.076 30.217-30.029h97.147c16.568 0.047 29.982 13.461 30.076 30.029v78.695h593.051v-78.695c0.047-16.568 13.461-29.935 29.982-30.029h97.194c16.662-0.047 30.17 13.367 30.264 30.029v78.695h28.005c16.615 0.094 30.029 13.602 29.982 30.264v188.076c0 54.080-35.959 99.689-84.956 115.503v256.516c-0.047 16.615-13.602 30.076-30.217 29.982h-793.646c-1.035 0.094-2.071 0.094-3.106 0zM145.203 730.954h733.593v-219.898l-52.245-0.047v116.539c0.047 16.662-13.367 30.17-29.982 30.264h-203.053c-8.049 0-15.768-3.154-21.416-8.849-5.695-5.648-8.849-13.367-8.849-21.416v-116.539h-102.513v116.539c0 8.049-3.154 15.768-8.849 21.416-5.648 5.695-13.367 8.849-21.416 8.849h-202.958c-16.662-0.094-30.076-13.602-30.029-30.264v-116.539h-52.292zM257.741 597.568h142.712v-86.557h-142.712zM623.495 597.568h142.807v-86.557h-142.807zM121.802 450.761h773.597c1.6 0 4.424-0.471 9.131-1.13h0.047c2.871-0.424 5.789-0.424 8.707 0 29.135-5.083 50.503-29.652 50.503-60.481v-24.004h-903.74v24.004c0 34.689 27.111 61.611 61.752 61.611zM60.049 304.905h903.692v-73.849h-903.692zM118.272 170.809h36.901v-48.479h-36.854zM868.757 170.809h36.901v-48.479h-36.854z" />
<glyph unicode="&#xe924;" glyph-name="iconmonstr-delivery-9-support" d="M540.416-38.741l-118.912 229.504-69.717-34.133c-75.648-36.693-229.675 264.149-155.691 303.787l70.315 34.645-117.931 230.272-71.125-35.115c-243.285-126.805 142.976-877.611 391.808-763.861 4.096 1.835 70.997 34.773 71.253 34.901zM749.568 72.32l44.416-72.96c-43.477-28.757-91.605-51.072-142.976-65.579l-39.851 77.824c50.133 11.947 96.853 32.768 138.411 60.715zM874.24 201.259l80.299-32.085c-28.928-49.579-65.963-93.824-109.227-131.029l-45.099 74.069c28.501 26.112 53.461 56.107 74.027 89.045zM904.064 258.262c22.272 51.669 34.603 108.629 34.603 168.405 0 235.477-191.189 426.667-426.667 426.667-106.539 0-203.989-39.125-278.784-103.765l-39.808 77.824c87.467 69.632 198.187 111.275 318.592 111.275 282.581 0 512-229.419 512-512 0-70.997-14.507-138.624-40.661-200.107l-79.275 31.701zM754.261 298.667h-61.355v66.133h-122.88v42.197l104.96 168.96h79.275v-162.56h33.28v-48.597h-33.28v-66.133zM537.941 298.667h-196.608v39.211l35.84 32.427c60.587 54.187 90.027 85.333 90.88 117.803 0 22.613-13.653 40.533-45.653 40.533-23.893 0-44.8-11.947-59.307-23.040l-18.347 46.464c20.907 15.787 53.333 28.587 90.88 28.587 62.677 0 97.195-36.651 97.195-86.997 0-46.549-33.664-83.669-73.728-119.509l-25.6-21.333v-0.853h104.448v-53.291zM692.907 413.398v61.44c0 16.683 0.853 33.749 2.133 51.669h-1.707c-8.96-17.92-16.213-34.133-25.6-51.669l-37.12-60.587v-0.853h62.293z" />
<glyph unicode="&#xe925;" glyph-name="noun_419097_cc" horiz-adv-x="819" d="M564.785 736.004c37.629 10.366 137.559 37.421 120.973 98.375-10.988 40.324-70.8 70.179-160.157 45.715-48.721-13.268-93.814-56.081-116.619-93.917-22.805 37.837-68.001 80.753-116.722 93.917-17.176 5.571-36.94 8.783-57.452 8.783-17.348 0-34.158-2.297-50.146-6.604l1.346 0.308c-28.3-8.811-47.995-26.433-53.904-48.202-4.25-15.446-2.799-38.355 27.574-60.020 19.903-14.097 50.483-26.642 93.295-38.355l18.555-4.873h-264.233v-222.457h392.669v207.944h1.658c2.598 0.127 5.040 0.611 7.337 1.404l-0.186-0.056c2.153-0.885 4.649-1.51 7.255-1.754l0.105-0.008h2.799v-207.53h392.773v222.457h-265.476zM533.686 850.031c73.392 19.903 116.101-2.488 122.009-23.946s-29.751-41.465-99.1-60.227-104.387-20.732-131.754-18.763c5.286 21.666 49.55 86.868 108.947 103.040zM177.712 799.755c-19.074 13.58-16.483 22.908-15.549 26.433 3.006 11.195 15.446 20.732 33.171 26.745 10.248 3.164 22.029 4.986 34.236 4.986 0.537 0 1.075-0.003 1.61-0.010l-0.081 0.001c18.993-0.248 37.229-3.070 54.506-8.134l-1.432 0.359c59.397-16.171 103.661-81.375 108.844-102.832-27.262-1.658-63.337 0-131.754 18.763-31.607 7.252-59.512 18.871-84.767 34.384l1.216-0.694zM23.569 493.85h376.913v-486.793h-376.913v486.793zM418.518 493.85h376.913v-486.793h-376.913v486.793z" />
<glyph unicode="&#xe926;" glyph-name="np_motor_1818859_000000" d="M1024 520.328c0 17.304-14.043 31.347-31.347 31.347s-31.347-14.043-31.347-31.347v-47.062h-46.059v47.062c0 17.304-14.043 31.347-31.347 31.347h-74.021l-53.081 68.838c-5.935 7.69-15.088 12.204-24.827 12.204l-42.13 0.042v55.296h42.13c17.304 0 31.347 14.043 31.347 31.347s-14.043 31.347-31.347 31.347l-354.516-0.042c-17.304 0-31.347-14.043-31.347-31.347s14.043-31.347 31.347-31.347h42.13v-55.296h-42.13c-8.317 0-16.3-3.302-22.152-9.195l-120.661-120.661h-92.871c-17.304 0-31.347-14.043-31.347-31.347v-15.13l-47.731 0.042v15.13c0 17.304-14.043 31.347-31.347 31.347s-31.347-14.043-31.347-31.347v-207.768c0-17.304 14.043-31.347 31.347-31.347s31.347 14.043 31.347 31.347v15.13h47.731v-15.13c0-17.304 14.043-31.347 31.347-31.347h92.871l120.661-120.661c5.893-5.893 13.834-9.195 22.152-9.195h354.516c5.141 0 10.198 1.254 14.754 3.678l151.926 81.084c10.198 5.433 16.593 16.091 16.593 27.669v47.062h46.059v-47.062c0-17.304 14.043-31.347 31.347-31.347s31.347 14.043 31.347 31.347zM482.324 688.014h144.821v-55.296h-144.821zM62.69 341.652v52.078h47.731v-52.078zM173.112 440.207h43.175v-145.078h-43.175zM852.548 233.818l-128.397-68.504h-333.704l-111.47 111.47v181.811l111.47 111.47h326.097l53.081-68.838c5.935-7.69 15.088-12.204 24.827-12.204h58.096zM915.242 324.766v85.807h46.059v-85.807zM628.024 397.238h-70.928l76.905 76.905c12.246 12.246 12.246 32.099 0 44.346s-32.099 12.246-44.346 0l-130.409-130.409c-8.944-8.944-11.661-22.444-6.813-34.147s16.3-19.352 28.965-19.352h70.886l-73.352-73.352c-12.246-12.246-12.246-32.099 0-44.346 6.102-6.102 14.127-9.195 22.152-9.195s16.050 3.051 22.152 9.195l126.888 126.888c8.944 8.944 11.661 22.444 6.813 34.147-4.807 11.704-16.259 19.31-28.923 19.31z" />
<glyph unicode="&#xe927;" glyph-name="np_pick-up_4456083_000000" d="M987.433 463.239h-621.717v219.43c0 20.206-16.366 36.572-36.572 36.572h-182.858c-12.846 0-24.777-6.766-31.36-17.737l-109.715-182.858c-3.429-5.714-5.211-12.16-5.211-18.834v-256.001c0-20.206 16.366-36.572 36.572-36.572h79.863c15.131-42.469 55.36-73.143 102.995-73.143s87.863 30.674 102.995 73.143h342.58c15.131-42.469 55.36-73.143 102.995-73.143s87.863 30.674 102.995 73.143h116.435c20.206 0 36.572 16.366 36.572 36.572v182.858c0 20.206-16.366 36.572-36.572 36.572zM167.001 646.097h125.572v-109.715h-191.401zM73.149 463.239h219.43v-138.235c-19.474 17.509-44.937 28.526-73.143 28.526-47.634 0-87.863-30.674-102.995-73.143h-43.292zM219.435 207.237c-20.16 0-36.572 16.366-36.572 36.572s16.412 36.572 36.572 36.572 36.572-16.366 36.572-36.572-16.412-36.572-36.572-36.572zM768.009 207.237c-20.206 0-36.572 16.366-36.572 36.572s16.366 36.572 36.572 36.572 36.572-16.366 36.572-36.572-16.366-36.572-36.572-36.572zM950.867 280.381h-79.863c-15.131 42.469-55.36 73.143-102.995 73.143s-87.863-30.674-102.995-73.143h-299.29v109.715h585.145z" />
<glyph unicode="&#xe928;" glyph-name="iconmonstr-currency-37-compare" d="M511.999 960c-282.318 0-511.999-229.692-511.999-511.999s229.679-512.001 511.999-512.001c282.331 0 512.001 229.693 512.001 512.001s-229.67 511.999-512.001 511.999zM511.999 1.111c-246.412 0-446.89 200.478-446.89 446.89s200.478 446.89 446.89 446.89c246.412 0 446.89-200.478 446.89-446.89s-200.478-446.89-446.89-446.89zM473.070 424.984c1.61 1.61 2.514 3.792 2.514 6.068s-0.903 4.46-2.513 6.069l-33.897 33.897c-3.351 3.351-8.784 3.352-12.136 0.001l-160.829-160.782c-1.61-1.61-2.514-3.793-2.514-6.069s0.905-4.46 2.514-6.069l160.829-160.782c3.352-3.351 8.785-3.35 12.136 0.001l33.897 33.897c1.61 1.61 2.513 3.792 2.513 6.069s-0.905 4.459-2.514 6.068l-88.283 88.262c0 0 342.961 0 342.961 0 4.74 0 8.582 3.841 8.582 8.582v47.944c0 4.74-3.841 8.582-8.582 8.582h-342.96c0 0 88.282 88.26 88.282 88.26zM550.974 724.789c-1.61-1.61-2.513-3.792-2.513-6.068s0.903-4.459 2.513-6.068l88.263-88.263c0 0-342.988 0-342.988 0-4.74 0-8.582-3.841-8.582-8.582v-47.944c0-4.74 3.841-8.582 8.582-8.582h342.988c0 0-88.263-88.263-88.263-88.263-3.351-3.352-3.351-8.785 0-12.137l33.897-33.897c3.352-3.351 8.785-3.351 12.137 0l160.782 160.782c3.351 3.352 3.351 8.785 0 12.137l-160.782 160.782c-3.352 3.351-8.785 3.351-12.137 0l-33.897-33.895z" />
<glyph unicode="&#xe929;" glyph-name="iconmonstr-loading-3" d="M323.2 710.955l-85.717 148.437 36.992 21.333 85.803-148.608c-12.757-6.4-25.259-13.312-37.077-21.163zM286.464 682.411l-121.387 121.387-30.208-30.208 121.387-121.387c9.429 10.709 19.499 20.736 30.208 30.208zM444.416 761.259l-44.331 165.461-41.259-11.051 44.416-165.675c13.397 4.523 27.051 8.405 41.173 11.264zM227.712 615.424l-148.437 85.717-21.376-36.949 148.651-85.803c6.4 12.757 13.269 25.216 21.163 37.035zM188.672 535.424l-165.675 44.373-11.093-41.259 165.504-44.331c2.859 14.123 6.741 27.776 11.264 41.216zM512 768l21.291-1.067v171.733h-42.667v-171.733l21.376 1.067zM817.408 578.432l148.608 85.803-21.248 36.907-148.437-85.717c7.851-11.819 14.763-24.235 21.077-36.992zM846.592 494.251l165.461 44.373-10.965 41.173-165.717-44.416c4.523-13.397 8.363-27.051 11.221-41.131zM767.701 652.288l121.387 121.387-30.080 30.165-121.429-121.429c10.667-9.429 20.693-19.499 30.123-30.123zM170.667 426.667l1.067 21.333h-171.733v-42.667h171.733l-1.067 21.333zM620.715 750.038l44.373 165.632-41.131 11.093-44.373-165.547c14.080-2.816 27.691-6.699 41.131-11.179zM700.757 710.998l85.675 148.437-36.821 21.333-85.845-148.651c12.715-6.357 25.173-13.269 36.992-21.12zM177.408 359.126l-165.504-44.331 11.093-41.259 165.675 44.416c-4.523 13.397-8.405 27.051-11.264 41.173zM737.536 170.923l121.387-121.344 30.165 30.123-121.387 121.387c-9.429-10.709-19.456-20.736-30.165-30.165zM663.723 121.216l85.803-148.608 36.907 21.333-85.675 148.437c-11.861-7.893-24.32-14.805-37.035-21.163zM796.331 237.91l148.395-85.675 21.333 36.864-148.608 85.803c-6.357-12.757-13.269-25.173-21.12-36.992zM835.371 317.952l165.632-44.373 11.093 41.131-165.504 44.373c-2.859-14.080-6.699-27.733-11.221-41.131zM852.267 447.958l1.067-21.291-1.067-21.333h171.733v42.624h-171.733zM256.299 201.088l-121.429-121.387 30.208-30.165 121.387 121.387c-10.709 9.472-20.736 19.499-30.165 30.165zM579.541 92.075l44.331-165.504 41.216 11.051-44.373 165.675c-13.44-4.523-27.093-8.405-41.173-11.221zM323.2 142.379l-85.717-148.437 36.992-21.291 85.803 148.565c-12.757 6.4-25.216 13.312-37.077 21.163zM206.549 274.944l-148.651-85.803 21.376-36.949 148.437 85.675c-7.893 11.861-14.763 24.32-21.163 37.077zM403.285 103.296l-44.416-165.675 41.216-11.008 44.331 165.419c-14.080 2.901-27.733 6.784-41.131 11.264zM512 85.334l-21.376 1.067v-171.733h42.667v171.733l-21.291-1.067z" />
<glyph unicode="&#xe92a;" glyph-name="np_quote_77746_000000" d="M602.353 848.314v-421.647h240.941c0-133.033-107.907-240.941-240.941-240.941v-180.706c232.883 0 421.647 188.764 421.647 421.647v421.647zM0 426.667h240.941c0-133.033-107.907-240.941-240.941-240.941v-180.706c232.883 0 421.647 188.764 421.647 421.647v421.647h-421.647z" />
<glyph unicode="&#xe92b;" glyph-name="noun_bag_958239_000000" d="M883.955 694.56h-138.829v31.098c0 129.944-104.399 234.343-232.121 234.343s-232.121-104.399-232.121-234.343v-31.098h-138.829c-18.881 0-33.319-14.438-33.319-33.319v-639.722c0-47.757 38.872-85.518 85.518-85.518h635.28c47.757 0 85.518 38.872 85.518 85.518v640.833c2.221 17.77-13.328 32.208-31.098 32.208zM347.521 726.768c0 92.182 74.412 167.705 165.484 167.705s165.484-75.523 165.484-167.705v-31.098h-330.967v31.098zM830.644 2.638h-635.28c-11.106 0-19.991 8.885-19.991 19.991v606.403h105.51v-183.254c0-18.881 14.438-33.319 33.319-33.319s33.319 14.438 33.319 33.319v183.254h330.967v-183.254c0-18.881 14.438-33.319 33.319-33.319s33.319 14.438 33.319 33.319v183.254h105.51v-606.403c0-11.106-8.885-19.991-19.991-19.991z" />
<glyph unicode="&#xe92c;" glyph-name="np_quote_4574775_000000" d="M437.935 864.473h-421.54c-9.199 0-16.396-7.149-16.396-16.396v-421.335c0-9.199 7.149-16.396 16.396-16.396h292.306l-149.621-399.49c-1.9-4.849-1.3-10.498 1.65-15.098 3.349-4.199 8.199-6.899 13.798-6.899h105.333c6.899 0 12.798 3.949 15.098 10.498l158.080 420.887 0.4 0.65c0.4 1 0.4 1.9 0.4 2.95 0.4 1 0.65 1.9 0.65 2.95v421.284c-0.15 9.199-7.299 16.396-16.547 16.396zM1007.446 864.473h-421.54c-9.199 0-16.396-7.149-16.396-16.396v-421.335c0-9.199 7.149-16.396 16.396-16.396h292.306l-149.621-399.49c-1.9-4.849-1.3-10.498 1.65-15.098 3.349-4.199 8.199-6.899 13.798-6.899h105.333c6.899 0 12.798 3.949 15.098 10.498l158.080 420.887 0.4 0.65c0.4 1 0.4 1.9 0.4 2.95 0.4 1 0.65 1.9 0.65 2.95v421.284c-0.15 9.199-7.299 16.396-16.547 16.396z" />
<glyph unicode="&#xe92d;" glyph-name="iconmonstr-pen-12" d="M512 874.667c235.264 0 426.667-191.403 426.667-426.667s-191.403-426.667-426.667-426.667-426.667 191.403-426.667 426.667 191.403 426.667 426.667 426.667zM512 960c-282.752 0-512-229.248-512-512s229.248-512 512-512 512 229.248 512 512-229.248 512-512 512zM468.523 527.787c-12.032 12.501-11.435 32.043 1.024 44.16l126.891 123.051c6.187 5.973 14.165 9.003 22.059 9.003 8.021 0 16-3.115 22.101-9.387l-172.075-166.827zM259.968 214.272c-2.645-2.517-3.968-5.931-3.968-9.301 0-7.125 5.803-12.971 12.971-12.971 3.243 0 6.485 1.237 9.045 3.669l21.291 20.736-18.005 18.603-21.333-20.736zM439.979 453.931l-72.96-70.699c-39.168-38.016-59.179-74.795-77.611-126.208l32.171-33.237c51.925 16.853 89.344 35.669 128.555 73.728l72.917 70.741-83.072 85.675zM652.672 671.787l-187.819-182.187 94.635-97.707 187.819 182.144c13.781 13.397 20.693 31.147 20.693 48.896 0 59.392-71.979 90.88-115.328 48.853z" />
<glyph unicode="&#xe92e;" glyph-name="iconmonstr-loading-1" d="M348.885 623.958l-129.792 224.768 73.856 42.667 129.877-224.981c-27.051-10.112-52.096-24.363-73.941-42.453zM256 426.667c0 14.549 1.493 28.757 3.84 42.667h-259.84v-85.333h259.84c-2.347 13.909-3.84 28.117-3.84 42.667zM314.752 589.824l-224.811 129.792-42.667-73.899 224.981-129.877c10.112 27.093 24.405 52.139 42.496 73.984zM675.157 623.915l129.835 224.896-73.856 42.624-129.963-225.067c27.093-10.069 52.139-24.363 73.984-42.453zM751.744 515.798l225.109 129.963-42.709 73.856-224.853-129.792c18.091-21.888 32.341-46.933 42.453-74.027zM512 682.667c14.549 0 28.757-1.493 42.667-3.84v259.84h-85.333v-259.84c13.909 2.347 28.117 3.84 42.667 3.84zM601.173 186.966l129.92-225.024 73.856 42.667-129.792 224.853c-21.845-18.133-46.891-32.427-73.984-42.496zM272.299 337.494l-224.939-129.877 42.667-73.899 224.768 129.792c-18.133 21.845-32.427 46.891-42.496 73.984zM764.16 469.334c2.347-13.909 3.84-28.075 3.84-42.667s-1.493-28.757-3.84-42.667h259.84v85.333h-259.84zM709.291 263.552l224.853-129.835 42.624 73.899-225.024 129.92c-10.112-27.093-24.363-52.139-42.453-73.984zM348.885 229.376l-129.749-224.768 73.899-42.667 129.877 224.939c-27.093 10.112-52.181 24.405-74.027 42.496zM512 170.667c-14.549 0-28.757 1.493-42.667 3.84v-259.84h85.333v259.84c-13.909-2.347-28.117-3.84-42.667-3.84z" />
<glyph unicode="&#xe92f;" glyph-name="uniE92F" horiz-adv-x="819" d="M396.711 836.17c1.434-0.281 2.621-0.585 3.783-0.949l-0.249 0.067h15.019c0.049 0 0.108 0 0.166 0 19.174 0 34.765-15.342 35.171-34.42l0.001-0.038v-212.044c0-0.047 0-0.103 0-0.16 0-19.43-15.75-35.181-35.179-35.181-0.056 0-0.112 0-0.168 0h-15.010c-0.047 0-0.103 0-0.159 0-19.429 0-35.179 15.751-35.179 35.181 0 0.056 0 0.113 0 0.168v-0.008 212.044c0.020 16.969 12.049 31.122 28.043 34.418l0.227 0.039c0.912 0.297 2.1 0.601 3.309 0.844l0.225 0.038zM146.695 731.032c0.892 0.080 1.93 0.126 2.978 0.126 9.924 0 18.887-4.11 25.284-10.719l0.009-0.009 150.188-149.314c6.025-6.303 9.732-14.865 9.732-24.292 0-9.869-4.063-18.788-10.608-25.177l-0.007-0.006-10.602-10.602c-1.594-1.968-3.333-3.706-5.236-5.25l-0.065-0.052c-5.452-3.643-12.158-5.813-19.37-5.813-9.678 0-18.443 3.909-24.804 10.233l-150.186 150.195c-6.284 6.352-10.166 15.092-10.166 24.738s3.882 18.386 10.169 24.742l10.599 10.599c5.676 5.875 13.36 9.776 21.945 10.591l0.141 0.011zM670.583 730.15c0.134 0.002 0.29 0.003 0.448 0.003 9.863 0 18.778-4.059 25.166-10.599l10.608-10.608c6.025-6.303 9.732-14.865 9.732-24.292 0-9.869-4.063-18.788-10.608-25.177l-0.007-0.006-149.304-149.314c-6.368-6.377-15.17-10.322-24.893-10.322-8.325 0-15.975 2.892-21.999 7.727l0.069-0.054c-1.044 0.632-1.908 1.216-2.744 1.834l0.095-0.067-10.602 10.602c-6.549 6.395-10.61 15.313-10.61 25.18s4.061 18.785 10.604 25.173l0.007 0.006 149.304 149.314c6.295 6.444 15.033 10.479 24.713 10.602h0.023zM28.312 466.861c1.060 0.114 2.289 0.178 3.534 0.178s2.474-0.064 3.685-0.19l-0.152 0.013h211.146c0.049 0 0.108 0 0.166 0 19.173 0 34.764-15.341 35.171-34.418l0.001-0.038v-15.021c0-0.047 0-0.104 0-0.16 0-19.43-15.75-35.181-35.179-35.181-0.056 0-0.113 0-0.168 0h-211.138c-0.096-0.001-0.208-0.001-0.321-0.001-18.241 0-33.24 13.884-35.005 31.662l-0.012 0.146c-0.028 0.528-0.044 1.146-0.044 1.767s0.016 1.24 0.048 1.853l-0.003-0.086v15.021c0.020 16.969 12.049 31.121 28.043 34.416l0.227 0.039zM565.452 465.979c1.060 0.114 2.289 0.178 3.534 0.178s2.474-0.064 3.685-0.19l-0.152 0.013h211.146c0.047 0 0.103 0 0.159 0 19.429 0 35.179-15.751 35.179-35.181 0-0.056 0-0.113 0-0.168v0.008-15.018c0-0.047 0-0.103 0-0.159 0-19.43-15.75-35.181-35.179-35.181-0.056 0-0.112 0-0.168 0h-211.138c-0.096-0.001-0.208-0.001-0.321-0.001-18.241 0-33.24 13.884-35.005 31.662l-0.012 0.146c-0.028 0.527-0.044 1.145-0.044 1.767s0.016 1.24 0.048 1.853l-0.003-0.086v15.018c-0.006 0.25-0.011 0.546-0.011 0.842 0 16.989 12.040 31.165 28.053 34.459l0.227 0.039zM287.164 351.125c1.136 0.13 2.452 0.204 3.785 0.204 9.962 0 18.957-4.141 25.357-10.796l0.011-0.012 10.602-10.603c5.767-6.247 9.304-14.628 9.304-23.835 0-9.657-3.891-18.404-10.189-24.762l-149.301-149.31c-6.412-6.675-15.413-10.823-25.383-10.823-8.107 0-15.572 2.741-21.521 7.349l0.081-0.060c-0.938 0.848-1.803 1.715-2.62 2.626l-0.028 0.033-10.602 10.602c-6.284 6.352-10.166 15.092-10.166 24.738s3.882 18.386 10.169 24.742l149.301 149.31c5.463 5.702 12.806 9.563 21.031 10.585l0.172 0.018zM522.163 350.242c2.057 0.427 4.421 0.671 6.842 0.671 9.758 0 18.588-3.973 24.96-10.39l149.306-149.315c6.549-6.395 10.611-15.313 10.611-25.18s-4.061-18.785-10.604-25.174l-0.007-0.006-10.602-10.603c-0.846-0.943-1.711-1.81-2.618-2.631l-0.031-0.027c-5.868-4.546-13.334-7.289-21.439-7.289-9.969 0-18.971 4.147-25.372 10.811l-149.315 149.328c-6.284 6.352-10.166 15.092-10.166 24.738s3.882 18.386 10.169 24.742l10.599 10.6c4.68 4.754 10.694 8.18 17.436 9.674l0.234 0.043zM398.478 298.998c1.434-0.279 2.621-0.582 3.783-0.944l-0.249 0.067h15.019c18.867-0.397 34.058-15.59 34.454-34.421l0.001-0.037v-212.044c-0.398-18.867-15.588-34.058-34.417-34.455l-0.038-0.001h-15.019c-0.049 0-0.108 0-0.166 0-19.173 0-34.764 15.341-35.171 34.418l-0.001 0.038v212.044c0.019 16.97 12.048 31.124 28.043 34.419l0.227 0.039c0.912 0.295 2.1 0.598 3.31 0.84l0.224 0.037z" />
<glyph unicode="&#xe930;" glyph-name="edit-heart" horiz-adv-x="1061" d="M1011.383 623.506c0-296.119-403.383-445.513-488.741-623.616-85.358 178.103-488.704 327.497-488.704 623.616 0 298.715 373.614 365.129 488.704 133.193 115.273 232.229 488.741 165.23 488.741-133.193zM734.208 683.447l45.97-45.97-173.495-173.495-57.6-11.63 11.63 57.6zM734.208 728.905l-203.081-203.081-23.113-114.542 114.505 23.113 203.118 203.081zM848.384 660.187l45.275 45.312-91.429 91.392-45.239-45.275z" />
<glyph unicode="&#xe931;" glyph-name="noun_call_1402767_000000" d="M660.75-24.615c-0.019 0-0.26 0-0.279 0-123.74 0.212-284.904 117.769-394.462 227.712-109.567 109.942-226.558 271.51-226.346 395.26 0.106 57.087 33.375 148.269 106.154 213.587 18.154 16.317 47.913 15.577 65.038-1.625l127.346-127.779c17.865-17.942 18.365-46.577 1.125-65.192-14.673-15.837-30.385-27.74-44.25-38.24-12.798-9.692-28.731-21.76-28.74-27.885-0.202-120.471 227.327-348.798 347.798-349.010 5.846 0 18.058 17 26.971 29.423 10 13.942 21.337 29.731 36.404 44.538 17.74 17.404 48.5 17.212 66.106-0.462l129.433-129.885c17.692-17.769 18.298-46.327 1.375-65.038-65.442-72.423-156.644-105.404-213.673-105.404zM177.567 784.75c-1.99 0-3.923-0.75-5.442-2.115-60.981-54.731-92.981-134.163-93.077-184.356-0.154-92.048 84.183-236.26 214.856-367.394 130.683-131.115 274.596-215.962 366.644-216.115l0.202-19.692v19.692c50.154 0 129.615 31.75 184.462 92.442 2.856 3.154 2.827 7.904-0.067 10.808l-129.423 129.885c-3.769 3.827-6.817 3.904-10.606 0.173-12.663-12.442-22.952-26.769-32.029-39.423-16.913-23.558-32.894-45.827-58.952-45.827-0.010 0 0 0-0.010 0-141.375 0.25-387.413 247.135-387.173 388.462 0.048 25.663 21.567 41.962 44.346 59.212 12.567 9.529 26.817 20.317 39.135 33.606 2.817 3.048 2.769 7.721-0.135 10.635l-127.346 127.779c-1.827 1.846-3.933 2.231-5.385 2.231zM819.058 508.913c-10.875 0-19.692 8.817-19.692 19.692 0 114.163-92.885 207.038-207.048 207.038-10.875 0-19.692 8.817-19.692 19.692s8.817 19.692 19.692 19.692c135.885 0 246.433-110.548 246.433-246.423 0-10.875-8.817-19.692-19.692-19.692zM686.010 499.365c-10.875 0-19.692 8.817-19.692 19.692 0 46.067-37.471 83.538-83.538 83.538-10.875 0-19.692 8.817-19.692 19.692s8.817 19.692 19.692 19.692c67.779 0 122.923-55.144 122.923-122.923 0-10.875-8.817-19.692-19.692-19.692zM964.644 499.365c-10.875 0-19.692 8.817-19.692 19.692 0 199.702-162.471 362.173-362.173 362.173-10.875 0-19.692 8.817-19.692 19.692s8.817 19.692 19.692 19.692c221.423 0 401.558-180.135 401.558-401.558 0-10.875-8.817-19.692-19.692-19.692zM554.135 470.654c-5.317 0-10.24 2.163-13.981 5.904-3.74 3.548-5.712 8.663-5.712 13.788 0 5.317 1.971 10.24 5.712 13.981 7.288 7.279 20.481 7.279 27.769 0 3.74-3.74 5.904-8.663 5.904-13.981 0-5.125-2.163-10.24-5.904-13.99-3.548-3.538-8.663-5.702-13.788-5.702z" />
<glyph unicode="&#xe932;" glyph-name="percent22" d="M941.321 448c0-237.123-192.229-429.321-429.321-429.321s-429.321 192.229-429.321 429.321c0 237.123 192.229 429.321 429.321 429.321s429.321-192.229 429.321-429.321zM286.115 524.309c5.084-12.612 12.313-23.651 21.71-33.121s20.608-16.993 33.687-22.549c13.048-5.554 27.665-8.331 43.824-8.331 15.96 0 30.545 2.812 43.692 8.463s24.391 13.216 33.687 22.68c9.302 9.501 16.526 20.473 21.71 32.984s7.76 25.692 7.76 39.611c0 14.087-2.644 27.434-7.896 40.046s-12.644 23.651-22.114 33.121c-9.501 9.501-20.776 16.993-33.824 22.549s-27.397 8.331-42.989 8.331-29.91-2.775-42.989-8.331c-13.079-5.554-24.354-13.048-33.824-22.549s-16.862-20.54-22.114-33.121c-5.252-12.612-7.896-25.928-7.896-40.046 0-13.919 2.544-27.166 7.628-39.742zM400.697 600.152c4.785-1.873 8.935-4.517 12.413-7.896s6.254-7.46 8.331-12.245c2.072-4.785 3.080-10.105 3.080-15.923 0-5.451-1.039-10.572-3.080-15.356s-4.853-8.935-8.331-12.413c-3.478-3.478-7.628-6.254-12.413-8.331s-9.901-3.080-15.356-3.080-10.572 1.039-15.356 3.080c-4.785 2.072-8.966 4.884-12.544 8.463s-6.359 7.76-8.331 12.544c-1.973 4.785-2.978 9.8-2.978 15.089 0 5.823 1.002 11.138 2.978 15.923s4.749 8.866 8.331 12.245c3.578 3.379 7.76 6.023 12.544 7.896s9.901 2.812 15.356 2.812 10.572-0.939 15.356-2.812zM391.295 235.063l288.947 434.137h-74.972l-288.947-434.137zM515.447 301.903c5.152-12.612 12.413-23.651 21.71-33.121s20.54-16.993 33.687-22.549c13.148-5.554 27.733-8.331 43.692-8.331s30.545 2.812 43.692 8.463c13.148 5.656 24.391 13.216 33.687 22.68s16.526 20.54 21.71 33.121c5.152 12.581 7.76 25.828 7.76 39.742 0 14.087-2.644 27.434-7.896 40.046s-12.644 23.619-22.114 33.121c-9.501 9.501-20.776 16.993-33.824 22.549s-27.365 8.331-42.989 8.331-29.941-2.775-42.989-8.331c-13.079-5.554-24.354-13.048-33.824-22.549s-16.862-20.54-22.114-33.121c-5.252-12.612-7.896-25.928-7.896-40.046s2.576-27.434 7.76-40.046zM629.893 377.713c4.785-1.873 8.935-4.517 12.413-7.896s6.254-7.429 8.331-12.109c2.072-4.685 3.111-9.968 3.111-15.792 0-5.451-1.039-10.572-3.111-15.356s-4.816-8.998-8.331-12.544c-3.478-3.578-7.594-6.322-12.413-8.331s-9.901-2.943-15.356-2.943-10.572 1.039-15.356 3.080c-4.816 2.072-8.998 4.884-12.544 8.463s-6.322 7.696-8.331 12.413c-1.973 4.685-2.943 9.769-2.943 15.22 0 5.823 0.971 11.075 2.943 15.792s4.749 8.73 8.331 12.109c3.578 3.379 7.76 6.023 12.544 7.896s9.901 2.812 15.356 2.812 10.572-0.939 15.356-2.812z" />
<glyph unicode="&#xe933;" glyph-name="noun_bag_1740356_000000" d="M512.182 960c-114.655 0-206.545-98.232-206.545-218.545v-21.818h-57.091c-66.283 0-123.387-54.833-130.909-123.273l-58.545-533.454c-7.523-68.453 40.626-126.908 106.909-126.908h345.091c0.27 0 0.953-0.002 1.455 0 0.126 0 0.224-0.002 0.364 0h345.091c66.283 0 114.432 58.456 106.909 126.908l-58.545 533.454c-7.526 68.484-64.99 123.273-131.273 123.273h-56.727v21.818c0 120.314-91.526 218.545-206.182 218.545zM512.182 929.818c97.401 0 176-83.33 176-188.364v-21.818h-352.364v21.818c0 105.034 78.964 188.364 176.364 188.364zM248.546 689.455h57.091v-90.909c-16.862-6.531-29.091-23.653-29.091-43.636 0-25.481 19.859-46.545 44-46.545s44 21.065 44 46.545c0 19.822-11.989 36.986-28.727 43.636v90.909h352.364v-90.909c-16.739-6.65-28.727-23.815-28.727-43.636 0-25.481 19.86-46.545 44-46.545s44 21.065 44 46.545c0 19.983-12.228 37.106-29.091 43.636v90.909h56.727c49.145 0 95.591-43.012 101.455-96.364l58.545-533.454c5.867-53.383-27.945-93.456-77.091-93.456h-345.454c-0.217-0.002-0.873 0-1.455 0h-345.091c-49.144 0-82.958 40.072-77.091 93.456l58.909 533.454c5.868 53.395 51.582 96.364 100.727 96.364z" />
<glyph unicode="&#xe934;" glyph-name="np_5-stars_1117711_000000" d="M161.843 453.506l-24.4 49.28-24.44-49.28-54.079-8.32 39.28-38.8-10.040-55.84 49.28 26.16 49.24-26.16-10 55.84 39.24 38.8zM349.123 453.506l-24.4 49.28-24.4-49.28-54.079-8.32 39.24-38.8-10.040-55.84 49.28 26.16 49.24-26.16-10 55.84 39.24 38.8zM536.402 453.506l-24.4 49.28-24.4-49.28-54.079-8.32 39.24-38.8-10.040-55.84 49.28 26.16 49.28-26.16-10.040 55.84 39.24 38.8zM723.681 453.506l-24.4 49.28-24.4-49.28-54.079-8.32 39.24-38.8-10-55.84 49.24 26.16 49.28-26.16-10.040 55.84 39.24 38.8zM965.079 445.191l-54.079 8.32-24.44 49.28-24.4-49.28-54.079-8.32 39.24-38.8-10-55.84 49.24 26.16 49.28-26.16-10.040 55.84z" />
<glyph unicode="&#xe935;" glyph-name="1" horiz-adv-x="706" d="M115.818-85.333c-30.132 0-53.201 8.003-69.208 24.011s-24.011 38.135-24.011 66.383c0 29.189 8.004 51.318 24.011 66.383s39.077 22.599 69.208 22.599h142.654v636.999h103.106l-206.212-125.705c-21.657-13.183-41.902-18.361-60.734-15.537-17.891 2.825-33.427 10.828-46.61 24.011s-22.128 28.72-26.836 46.61c-3.766 18.833-1.883 37.194 5.65 55.084 7.533 18.833 21.657 34.839 42.372 48.022l196.326 118.643c19.774 12.241 39.548 22.128 59.321 29.661 20.715 7.533 40.96 11.299 60.734 11.299 28.248 0 50.376-7.533 66.383-22.599 16.949-14.124 25.423-36.252 25.423-66.383v-740.105h128.53c29.189 0 51.788-7.533 67.796-22.599s24.011-37.194 24.011-66.383c0-29.189-8.003-51.788-24.011-67.796-16.008-15.065-38.607-22.599-67.796-22.599h-490.108z" />
<glyph unicode="&#xe936;" glyph-name="iconmonstr-shopping-cart-9" horiz-adv-x="1168" d="M489.874 76.085c0-39.014-31.625-70.59-70.59-70.59s-70.59 31.577-70.59 70.59c0 38.966 31.625 70.59 70.59 70.59s70.59-31.625 70.59-70.59zM654.586 146.676c-38.966 0-70.59-31.577-70.59-70.59s31.625-70.591 70.59-70.591c38.965 0 70.59 31.578 70.59 70.591 0 38.966-31.625 70.59-70.59 70.59zM951.304 852.586l-161.512-564.728h-490.749l-177.748 423.545h-102.027l217.186-517.667h623.036l163.492 564.728h90.774l34.972 94.122h-197.425zM378.599 943.102c217.682-90.123 227.431-347.178 227.431-347.178 0.251-6.429 5.538-11.514 11.972-11.514h54.755c0 0-138.432-138.432-138.432-138.432-25.42 25.42-101.562 101.562-138.432 138.432 0 0 54.755 0 54.755 0 5.947 0 10.991 4.363 11.855 10.244 0 0 14.063 95.853-9.188 197.079-12.244 53.301-34.831 107.957-74.714 151.366z" />
<glyph unicode="&#xe937;" glyph-name="2" horiz-adv-x="742" d="M141.948-85.333c-34.839 0-60.734 8.003-77.683 24.011-16.007 16.949-24.011 41.431-24.011 73.446 0 20.715 5.179 40.019 15.537 57.909s24.482 36.251 42.372 55.084l265.534 279.658c39.548 42.372 67.796 80.036 84.745 112.993 17.89 32.957 26.836 65.912 26.836 98.869 0 41.431-13.653 72.974-40.96 94.632-26.364 21.658-64.971 32.486-115.818 32.486-27.307 0-55.556-4.237-84.745-12.712-28.248-7.533-57.909-20.245-88.982-38.135-20.715-11.299-40.018-15.537-57.909-12.712-16.949 3.766-31.544 11.771-43.785 24.011-12.241 13.183-20.245 28.72-24.011 46.61s-1.883 35.781 5.65 53.672c7.533 17.891 21.657 32.956 42.372 45.197 41.431 25.423 86.628 44.256 135.592 56.497 48.963 13.183 97.457 19.774 145.479 19.774 74.387 0 137.004-11.299 187.851-33.898 50.847-21.657 89.453-53.672 115.818-96.044s39.548-94.16 39.548-155.366c0-39.548-6.121-78.154-18.361-115.818s-31.544-75.799-57.909-114.406c-25.423-37.664-59.321-78.154-101.694-121.468l-247.172-251.41v56.497h382.764c30.132 0 52.731-7.533 67.796-22.599 16.008-15.065 24.011-37.194 24.011-66.383s-8.003-51.788-24.011-67.796c-15.065-15.065-37.664-22.599-67.796-22.599h-507.057z" />
<glyph unicode="&#xe938;" glyph-name="3" horiz-adv-x="729" d="M358.226-83.25c-49.060 0-99.045 5.554-149.955 16.662-49.985 12.033-93.491 28.695-130.517 49.985-24.067 12.96-40.729 28.233-49.985 45.82-8.331 18.514-11.571 36.564-9.719 54.151 2.777 17.587 10.182 32.86 22.216 45.82 12.033 13.885 27.307 22.679 45.82 26.381 19.439 3.702 40.729 0 63.87-11.108 36.1-17.587 70.349-30.083 102.747-37.489s64.795-11.108 97.193-11.108c37.025 0 68.035 4.629 93.028 13.885 24.993 10.183 43.968 24.529 56.927 43.043s19.439 41.654 19.439 69.424c0 38.877-13.421 68.035-40.266 87.474s-66.183 29.158-118.020 29.158h-81.92c-30.546 0-54.151 7.406-70.812 22.216-15.737 15.737-23.604 37.025-23.604 63.87 0 27.769 7.867 49.060 23.604 63.87 16.662 15.737 40.266 23.604 70.812 23.604h61.093c31.472 0 57.853 4.629 79.143 13.885 22.216 10.183 39.341 24.067 51.374 41.654 12.96 17.587 19.439 39.341 19.439 65.258 0 37.025-12.96 65.258-38.877 84.697-24.993 19.439-61.556 29.158-109.689 29.158-29.621 0-58.779-3.702-87.474-11.108-28.695-6.479-59.704-18.514-93.028-36.1-20.364-10.183-39.34-13.421-56.927-9.719s-32.398 12.033-44.431 24.993c-11.108 12.96-18.513 27.769-22.216 44.431-2.777 17.587-0.463 35.175 6.942 52.762 8.331 17.587 23.141 31.935 44.431 43.043 39.803 23.141 82.846 40.729 129.128 52.762 47.208 12.033 94.88 18.050 143.013 18.050 70.349 0 130.517-10.645 180.502-31.935s88.399-51.836 115.243-91.639c26.844-38.877 40.266-86.085 40.266-141.624 0-37.952-7.406-72.664-22.216-104.136s-35.637-58.316-62.481-80.532c-25.918-21.291-57.853-36.564-95.805-45.82v18.050c65.722-11.108 117.095-38.414 154.121-81.92s55.539-98.118 55.539-163.84c0-58.316-14.81-109.226-44.431-152.732-29.621-42.579-72.201-75.441-127.74-98.582-54.614-23.141-119.872-34.712-195.775-34.712z" />
<glyph unicode="&#xe939;" glyph-name="np_gift-wrap_1200854_000000" d="M796.309 717.917l-141.364-0.222-0.133 76.5c-0.089 38.561-15.149 74.991-42.426 102.178-27.233 27.144-63.395 42.294-101.867 42.294h-0.267c-38.561 0-74.767-15.371-101.956-42.648-27.233-27.277-42.159-63.661-42.071-102.222l0.133-76.544-141.364-0.267-94.137-802.319 762.286 1.288zM787.646 599.662l-187.026-189.028-68.681 62.773 254.205 138.874zM514.39 40.221h-0.267c-17.281 0-26.255-7.774-32.875-15.416-0.666-0.755-1.288-0.089-1.955-0.8l-48.112 41.715 0.977 3.332c6.353-7.508 15.149-17.459 31.009-17.459h0.311c17.237 0 26.211 13.372 32.786 21.013 5.953 6.886 9.063 13.105 15.593 13.105h0.133c6.575 0 9.729-5.953 15.593-12.972 6.486-7.819 15.416-21.146 32.83-21.146h0.355c16.082 0 25.011 10.173 31.497 17.637l0.8-2.621-45.936-42.159c-6.53 7.774-15.416 15.771-32.741 15.771zM529.895 12.366l-17.637-15.149-15.682 13.372c0.622 0.711 1.333 1.377 1.91 2.088 5.953 6.93 9.196 10.795 15.682 10.218 6.619-0.089 9.729-3.465 15.638-10.44l0.089-0.089zM576.319 86.645c-5.953-6.93-8.707-10.529-15.771-10.218-6.575 0.044-9.729 4.931-15.593 11.95-6.486 7.774-15.416 20.080-32.83 20.080h-0.311c-17.237 0-26.211-13.372-32.786-21.013-5.909-6.886-9.018-13.105-15.549-13.105h-0.133c-6.619 0-9.729 4.798-15.549 11.817-2.754 3.287-5.864 7.552-9.64 10.706l5.198 26.3c5.153-3.598 11.684-3.332 20.213-3.332h0.311c17.193 0 26.211 7.686 32.786 15.327 5.953 6.841 9.107 7.419 15.593 7.419h0.222c6.575 0 9.685-5.953 15.549-12.972 6.53-7.819 15.46-21.146 32.919-21.146h0.355c8.352 0 14.66 5.242 19.814 8.663l5.242-21.902c-3.954-3.11-7.152-5.287-10.040-8.574zM561.214 131.204h-0.178c-6.619 0-9.729 6.131-15.593 13.149-6.486 7.774-15.416 19.814-32.83 19.947-17.193 0-26.522-7.064-33.141-14.794-5.909-6.886-9.107-6.93-15.549-6.93h-0.133c-6.22 0-9.418 0.533-14.705 6.753l6.486 28.832c2.71-0.622 5.509-1.466 8.485-1.466h0.267c17.237 0 26.255 7.686 32.83 15.327 5.909 6.886 9.063 7.419 15.549 7.419h0.133c6.575 0 9.729-0.267 15.593-7.286 6.53-7.819 15.46-15.46 32.83-15.46h0.355c2.443 0 4.709-2.177 6.975-1.777l6.708-32.43c-4.931-5.686-8.13-11.284-14.083-11.284zM561.614 199.441h-0.178c-6.575 0-9.729 0.267-15.593 7.286-6.486 7.819-15.416 15.46-32.83 15.46h-0.311c-17.237 0-26.211-8.663-32.786-16.304-5.953-6.93-9.374-9.374-15.682-9.285-1.466 0-2.666 0.711-3.776 0.977l8.263 37.406c14.616 1.51 22.79 10.929 28.876 17.948 5.953 6.93 9.018 9.951 15.726 10.262 6.575-0.044 9.685-3.376 15.504-10.395 5.598-6.753 13.061-15.549 26.255-17.948l8.53-36.473c-0.666-0.044-1.244 1.066-1.999 1.066zM546.332 269.721c-6.53 7.774-15.416 20.702-32.875 20.702h-0.267c-17.237 0-26.255-12.661-32.83-20.347-2.177-2.532-3.954-5.509-5.686-7.108l8.441 36.784c6.486 3.732 11.106 9.551 14.927 13.994 5.864 6.93 9.018 10.795 15.549 10.795h0.178c6.575 0 9.729-3.954 15.549-10.973 2.976-3.554 6.308-7.774 10.573-11.151l8.352-37.095c-0.666 0.755-1.244 3.554-1.91 4.398zM491.778 339.468l5.775 25.767 28.121-0.222 5.242-22.568c-4.576 2.532-10.129 4.842-17.015 4.842h-0.355c-9.418 0-16.304-3.732-21.768-7.819zM526.385 387.803l-30.298-0.044-17.281 42.115 33.452 30.742 31.764-29.010zM632.072 634.457c0.222-6.175 5.198-11.106 11.417-11.106 6.175 0 11.106 4.887 11.417 11.017 6.308-3.865 10.529-10.795 10.529-18.703 0-12.172-9.862-22.035-22.035-22.035s-22.035 9.862-22.035 22.035c-0.044 7.997 4.265 14.927 10.706 18.792zM424.427 879.997c22.923 22.968 53.399 35.94 85.918 35.94h0.222c32.386 0 62.862-12.794 85.829-35.673 23.012-22.923 35.718-53.532 35.762-86.007l0.133-76.544-243.185-0.444-0.133 76.5c-0.044 32.43 12.528 63.217 35.451 86.229zM378.582 623.312c6.22 0 11.195 4.976 11.417 11.106 6.042-3.732 10.129-10.395 10.129-18.037 0-11.727-9.507-21.28-21.28-21.28-11.727 0-21.28 9.507-21.28 21.28 0 7.419 3.821 13.949 9.596 17.77 0.444-5.997 5.287-10.84 11.417-10.84zM245.257 694.259l121.143 0.222 0.089-36.828c-17.37-5.064-30.208-21.591-30.165-40.605 0-23.012 18.747-42.294 41.76-42.294h0.044c11.151 0 21.635 4.976 29.543 12.883 7.863 7.908 12.217 18.703 12.172 29.854-0.044 19.147-13.061 35.274-30.653 40.159l-0.089 36.784 243.14 0.444 0.089-37.184c-17.503-5.020-30.431-21.591-30.387-40.649 0.044-23.012 18.792-42.294 41.804-42.294h0.044c11.151 0 21.635 4.976 29.543 12.883 7.863 7.908 12.217 18.703 12.172 29.854-0.044 19.058-12.972 35.14-30.476 40.116l-0.044 37.273 121.098 0.222 7.064-58.508-272.152-148.643-272.641 147.71zM235.528 611.361l256.116-138.737-66.904-61.529-190.404 190.313zM230.953 572.623l193.11-193.076 36.828 33.852 15.638-38.117-70.547-317.37 98.445-83.963c2.132-1.821 4.753-2.71 7.375-2.71 0.133 0 0.267 0.089 0.444 0.089 0.133 0 0.267-0.089 0.444-0.089 2.621 0 5.287 0.889 7.419 2.754l98.179 84.274-71.88 318.394 15.504 38.561 39.494-36.073 189.744 191.734 76.367-632.216-711.064-1.199z" />
<glyph unicode="&#xe93a;" glyph-name="noun_right_arrow_1263681_000000" d="M96 458.67h527.998l-162.133 163.202 14.935 14.935 188.797-188.797-188.797-188.797-14.935 14.935 162.133 163.202h-527.998v-405.332h832v832h-832z" />
<glyph unicode="&#xe93b;" glyph-name="np_gift_755898_000000" d="M561.678 689.585l115.592 83.212c24.677 17.759 39.115 42.621 40.683 69.927 1.43 25.323-8.395 49.77-28.275 69.789-0.692 0.876-1.522 1.753-2.399 2.537l-3.367 2.906s-0.046 0.046-0.092 0.046c-0.784 0.646-1.568 1.245-2.445 1.799-16.236 12.362-33.949 18.866-51.431 18.866-33.026 0-59.964-22.325-72.049-59.779l-44.327-137.413-44.327 137.413c-12.085 37.454-39.023 59.779-72.049 59.779-17.205 0-34.595-6.273-51.108-18.681-0.969-0.554-1.891-1.245-2.768-1.983l-3.459-2.998c-0.784-0.692-1.476-1.43-2.122-2.168-19.88-19.696-29.982-44.419-28.552-70.066 1.522-27.353 16.006-52.169 40.683-69.973l115.592-83.212h-340.917v-774.919h774.919v774.919zM465.873 274.454v92.252h92.252v-92.252zM558.125 237.553v-285.985h-92.252v285.985zM161.438 366.712h267.528v-92.252h-267.528zM558.125 652.696v-249.085h-92.252v249.085zM595.026 366.712h267.528v-92.252h-267.528zM862.555 403.612h-267.528v249.085h267.528zM592.995 867.548c7.011 21.773 20.48 34.226 36.947 34.226 10.194 0 21.126-4.659 31.089-12.869 13.838-12.592 20.941-28.229 20.065-44.050-0.923-16.006-9.917-30.951-25.415-42.067l-108.904-78.414zM346.037 844.854c-0.876 15.821 6.227 31.504 19.465 43.543 10.563 8.764 21.541 13.377 31.689 13.377 16.467 0 29.936-12.454 36.947-34.179l46.218-143.223-108.904 78.414c-15.498 11.116-24.539 26.061-25.415 42.067zM428.971 652.697v-249.085h-267.528v249.085zM161.443 237.565h267.528v-285.985h-267.528zM595.032-48.42v285.985h267.528v-285.985z" />
<glyph unicode="&#xe93c;" glyph-name="code-tracking-search" horiz-adv-x="817" d="M806.836 74.645l-172.798 172.798c52.699 62.535 84.545 143.193 84.545 231.187 0 198.119-161.178 359.304-359.289 359.304-149.19 0-359.297-111.478-359.297-359.304 0-198.119 161.178-359.297 359.297-359.297 85.177 0 163.482 29.854 225.135 79.568l173.331-173.331c6.774-6.782 15.659-10.169 24.538-10.169s17.77 3.387 24.538 10.169c13.556 13.55 13.556 35.525 0 49.075zM359.294 796.279c175.15 0 317.641-142.499 317.641-317.656s-142.491-317.649-317.641-317.649c-175.15 0-317.649 142.491-317.649 317.649 0 219.103 185.75 317.656 317.649 317.656zM149.25 452.357l136.556-70.336v33.325l-96.227 48.236 96.227 48.242v33.318l-136.556-70.33zM300.064 375.649h32.034l79.513 205.894h-32.312zM425.32 545.121v-33.318l96.921-48.222-96.921-48.214v-33.325l136.542 70.044v22.99z" />
</font>
</defs>
</svg>
